Storage Wars - Die Geschäftemacher | Peter Clamat - Fachfremd und Beratungsresistent (Original Mix) | Relaciones Laborales y Recursos Humanos

Скачать через торрент [VIDEO] Tomb Raider: Лара Крофт Tomb Raider бесплатно русская версия torrent активатор

Статистика раздачи
Размер:  1.75 GB   |    Зарегистрирован:  16 дней   |    .torrent скачан:  21 раз   |   
Раздают:  1  
   
загрузка...
 
Автор Сообщение

Galfimbul

avatar Galfimbul


Tomb Raider: Лара Крофт / Tomb Raider


Год выпуска: 2018
Страна: Великобритания, США
Жанр: фэнтези, боевик, приключения
Продолжительность: 01:57:50
Перевод №1: русский Профессиональный (полное дублирование) BD EUR
Перевод №2: украинский Профессиональный (полное дублирование) Postmodern
Оригинальная дорожка: Есть
Субтитры: русские (форсированные), (полные), английские (полные), (SDH)
Режиссер: Роар Утхауг / Roar Uthaug
В ролях: Алисия Викандер, Доминик Уэст, Уолтон Гоггинс, Дэниэл Ву, Кристин Скотт Томас, Дерек Джекоби, Александр Виллауме, Тамер Барджаг, Эдриан Коллинз, Кинэн Эррисон, Андриан Мазив, Милтон Шорр, Ханна Джон-Кэймен, Питер Уэйсон, Сэмюэл Мак, Скай Янг и другие .
Описание: Лара Крофт — весьма самостоятельная дочь эксцентричного искателя приключений, который пропал, едва она стала подростком. Теперь ей двадцать один, она бесцельно проживает свою жизнь, курьером рассекая на байке по забитым улицам восточного Лондона. Решительно настроенная пробиться сама, она отказывается брать на себя руководство глобальной империей отца, столь же категорично отвергая мысль о том, что он действительно пропал. Слыша советы о том, что ей нужно смириться с этим фактом и жить дальше после семи лет бесплодных поисков, Лара уже и сама не понимает, что же заставляет ее распутывать обстоятельства его таинственного исчезновения .
Релиз группы

Качество: BDRip / рип с Blu-ray disc 1080p [EUR]
Формат: MP4
Видео кодек: H.264
Аудио кодек: AAC
Видео: 960x400 AR:2.40 1740 kbps 23.976 fps
Аудио №1: [Russian] 2ch 48 kHz 128 kbps - [Dub] Профессиональный (полное дублирование) BD EUR
Аудио №2: [Ukrainian] 2ch 48 kHz 128 kbps - [Dub] Профессиональный (полное дублирование) Postmodern
Аудио №3: [English] 2ch 48 kHz 128 kbps - Original
avs [info]: 960x400p 1:1 @ 24000/1001 fps (cfr)
x264 [info]: using SAR=1/1
x264 [info]: using cpu capabilities: MMX2 SSE2Fast SSSE3 SSE4.2 AVX FMA3 BMI2 AVX2
x264 [info]: profile High, level 4.1

x264 [info]: frame I:1730 Avg QP:15.14 size: 56350
x264 [info]: frame P:43518 Avg QP:18.81 size: 17838
x264 [info]: frame B:124273 Avg QP:20.85 size: 5337
x264 [info]: consecutive B-frames: 5.0% 4.7% 13.0% 24.2% 17.7% 24.9% 5.2% 1.4% 1.5% 1.3% 1.2%
x264 [info]: mb I I16..4: 5.0% 72.6% 22.3%
x264 [info]: mb P I16..4: 1.2% 11.7% 2.0% P16..4: 32.2% 36.2% 11.4% 0.0% 0.0% skip: 5.4%
x264 [info]: mb B I16..4: 0.1% 1.3% 0.2% B16..8: 34.7% 20.3% 3.0% direct: 4.8% skip:35.6% L0:41.8% L1:44.1% BI:14.1%
x264 [info]: 8x8 transform intra:77.7% inter:60.3%
x264 [info]: direct mvs spatial:97.8% temporal:2.2%
x264 [info]: coded y,uvDC,uvAC intra: 85.1% 76.7% 49.3% inter: 22.9% 16.1% 7.0%
x264 [info]: i16 v,h,dc,p: 34% 13% 6% 47%
x264 [info]: i8 v,h,dc,ddl,ddr,vr,hd,vl,hu: 7% 7% 6% 10% 14% 14% 14% 13% 15%
x264 [info]: i4 v,h,dc,ddl,ddr,vr,hd,vl,hu: 9% 8% 7% 9% 15% 14% 14% 11% 14%
x264 [info]: i8c dc,h,v,p: 37% 28% 19% 16%
x264 [info]: Weighted P-Frames: Y:15.3% UV:9.8%
x264 [info]: ref P L0: 52.9% 12.8% 14.7% 6.4% 4.5% 3.3% 2.7% 2.2% 0.4% 0.1%
x264 [info]: ref B L0: 79.8% 9.8% 4.7% 2.5% 1.9% 0.9% 0.4%
x264 [info]: ref B L1: 95.3% 4.7%
x264 [info]: kb/s:1739.06

encoded 169521 frames, 16.87 fps, 1739.06 kb/s
GeneralComplete name : K:\Torrents\Tomb Raider.2018.BDRip.x264.960x.rip by Frost O.S.mp4Format : MPEG-4Format profile : 3GPP Release 6 GeneralCodec ID : 3gg6 (isom/3gg6/mp42)File size : 1.75 GiBDuration : 1 h 57 minOverall bit rate mode : VariableOverall bit rate : 2 131 kb/sEncoded date : UTC 2018-07-01 14:51:15Tagged date : UTC 2018-07-01 14:51:15

VideoID : 1Format : AVCFormat/Info : Advanced Video CodecFormat profile : [email protected] settings : CABAC / 8 Ref FramesFormat settings, CABAC : YesFormat settings, ReFrames : 8 framesCodec ID : avc1Codec ID/Info : Advanced Video CodingDuration : 1 h 57 minBit rate : 1 740 kb/sMaximum bit rate : 7 051 kb/sWidth : 960 pixelsHeight : 400 pixelsDisplay aspect ratio : 2.40:1Frame rate mode : ConstantFrame rate : 23.976 (24000/1001) FPSColor space : YUVChroma subsampling : 4:2:0Bit depth : 8 bitsScan type : ProgressiveBits/(Pixel*Frame) : 0.189Stream size : 1.43 GiB (82%)Writing library : x264 core 152 r2851 ba24899Encoding settings : cabac=1 / ref=8 / deblock=1:-2:-1 / analyse=0x3:0x113 / me=umh / subme=11 / psy=1 / psy_rd=1.00:0.00 / mixed_ref=1 / me_range=32 / chroma_me=1 / trellis=2 / 8x8dct=1 / cqm=0 / deadzone=21,11 / fast_pskip=0 / chroma_qp_offset=-2 / threads=6 / lookahead_threads=1 / sliced_threads=0 / nr=0 / decimate=0 / interlaced=0 / bluray_compat=0 / constrained_intra=0 / bframes=10 / b_pyramid=2 / b_adapt=2 / b_bias=0 / direct=3 / weightb=1 / open_gop=0 / weightp=2 / keyint=250 / keyint_min=23 / scenecut=40 / intra_refresh=0 / rc=2pass / mbtree=0 / bitrate=1740 / ratetol=1.0 / qcomp=0.70 / qpmin=0 / qpmax=69 / qpstep=4 / cplxblur=20.0 / qblur=0.5 / ip_ratio=1.40 / pb_ratio=1.30 / aq=1:0.90Encoded date : UTC 2018-07-01 09:45:44Tagged date : UTC 2018-07-01 14:51:42Color range : LimitedColor primaries : BT.709Transfer characteristics : BT.709Matrix coefficients : BT.709

Audio #1ID : 2Format : AACFormat/Info : Advanced Audio CodecFormat profile : LCCodec ID : mp4a-40-2Duration : 1 h 57 minBit rate mode : VariableBit rate : 128 kb/sMaximum bit rate : 138 kb/sChannel(s) : 2 channelsChannel positions : Front: L RSampling rate : 48.0 kHzFrame rate : 46.875 FPS (1024 SPF)Compression mode : LossyStream size : 108 MiB (6%)Title : Russian / Dub, BD EUREncoded date : UTC 2018-07-01 14:25:24Tagged date : UTC 2018-07-01 14:51:42

Audio #2ID : 3Format : AACFormat/Info : Advanced Audio CodecFormat profile : LCCodec ID : mp4a-40-2Duration : 1 h 57 minBit rate mode : VariableBit rate : 128 kb/sMaximum bit rate : 136 kb/sChannel(s) : 2 channelsChannel positions : Front: L RSampling rate : 48.0 kHzFrame rate : 46.875 FPS (1024 SPF)Compression mode : LossyStream size : 108 MiB (6%)Title : Ukrainian / Dub, PostmodernEncoded date : UTC 2018-07-01 14:33:55Tagged date : UTC 2018-07-01 14:51:42

Audio #3ID : 4Format : AACFormat/Info : Advanced Audio CodecFormat profile : LCCodec ID : mp4a-40-2Duration : 1 h 57 minBit rate mode : VariableBit rate : 128 kb/sMaximum bit rate : 135 kb/sChannel(s) : 2 channelsChannel positions : Front: L RSampling rate : 48.0 kHzFrame rate : 46.875 FPS (1024 SPF)Compression mode : LossyStream size : 108 MiB (6%)Title : English / OriginalEncoded date : UTC 2018-07-01 14:19:24Tagged date : UTC 2018-07-01 14:51:42

Text #1ID : 5Format : Timed TextCodec ID : tx3gDuration : 1 h 52 minBit rate mode : VariableBit rate : 2 b/sStream size : 1.47 KiB (0%)Title : Russian / ForcedForced : NoEncoded date : UTC 2018-07-01 14:51:42Tagged date : UTC 2018-07-01 14:51:42

Text #2ID : 6Format : Timed TextCodec ID : tx3gDuration : 1 h 52 minBit rate mode : VariableBit rate : 46 b/sStream size : 37.7 KiB (0%)Title : Russian / FullForced : NoEncoded date : UTC 2018-07-01 14:51:42Tagged date : UTC 2018-07-01 14:51:42

Text #3ID : 7Format : Timed TextCodec ID : tx3gDuration : 1 h 51 minBit rate mode : VariableBit rate : 33 b/sStream size : 27.2 KiB (0%)Title : English / FullForced : NoEncoded date : UTC 2018-07-01 14:51:42Tagged date : UTC 2018-07-01 14:51:42

Text #4ID : 8Format : Timed TextCodec ID : tx3gDuration : 1 h 51 minBit rate mode : VariableBit rate : 40 b/sStream size : 32.7 KiB (0%)Title : English / SDHForced : NoEncoded date : UTC 2018-07-01 14:51:42Tagged date : UTC 2018-07-01 14:51:42


Трекер:  [ 01-Июл-2018 18:36 ]

  

Скачать .torrent

Размер .torrent файла 18 KB


Размер: 1.75 GB
Хэш (hash) релиза: 415d685ae5d81c78a500075ea2e6af460dcbec91

Торренты, похожие на [VIDEO] Tomb Raider: Лара Крофт Tomb Raider скачать торрент

Форум Название Автор Размер S L Добавлен
Видео (Фильмы/Клипы) ·%· [VIDEO] Tomb Raider: Лара Крофт / Tomb Raider (Роар Утхауг / Roar Uthaug) [2018, фэнтези, боевик, приключения, BDRip] [3GP, 320x] Dub BD EUR Galfimbul 424844315405 MB 0 0 1530459396

18:36

1-Июл-18

Видео (Фильмы/Клипы) ·%· [VIDEO] Tomb Raider: Лара Крофт / Tomb Raider (Роар Утхауг / Roar Uthaug) [2018, фэнтези, боевик, приключения, BDRip] [MP4, 1280x] Dub (Rus, Ukr), Original, Sub (rus, eng) Galfimbul 27743531722.58 GB 0 0 1530459379

18:36

1-Июл-18

Видео (Фильмы/Клипы) ·%· [VIDEO] Tomb Raider: Лара Крофт / Tomb Raider (Роар Утхауг / Roar Uthaug) [2018, фэнтези, боевик, приключения, BDRip] [MP4, 480x] Dub BD EUR Galfimbul 557129870531 MB 0 0 1530459372

18:36

1-Июл-18

Видео (Фильмы/Клипы) ·%· [VIDEO] Лара Крофт: Дилогия / Lara Croft Tomb Raider: Dilogy (Саймон Уэст / Simon West, Ян де Бонт / Jan de Bont) [2001-2003, фэнтези, боевик, триллер, приключения, BDRip] [3GP, 320x] Dub Galfimbul 785478885749 MB 0 0 1531413440

19:37

12-Июл-18

Видео (Фильмы/Клипы) ·%· [VIDEO] Лара Крофт: Дилогия / Lara Croft Tomb Raider: Dilogy (Саймон Уэст / Simon West, Ян де Бонт / Jan de Bont) [2001-2003, фэнтези, боевик, триллер, приключения, BDRip] [MP4, 1280x] Galfimbul 63264052775.89 GB 0 0 1531413408

19:36

12-Июл-18

Видео (Фильмы/Клипы) ·%· [VIDEO] Лара Крофт: Дилогия / Lara Croft Tomb Raider: Dilogy (Саймон Уэст / Simon West, Ян де Бонт / Jan de Bont) [2001-2003, фэнтези, боевик, триллер, приключения, BDRip] [MP4, 960x] Galfimbul 42777914563.98 GB 0 0 1531413399

19:36

12-Июл-18

Видео (Фильмы/Клипы) ·%· [VIDEO] Лара Крофт: Дилогия / Lara Croft Tomb Raider: Dilogy (Саймон Уэст / Simon West, Ян де Бонт / Jan de Bont) [2001-2003, фэнтези, боевик, триллер, приключения, BDRip] [MP4, 480x] Dub Galfimbul 1035381453987 MB 0 0 1531413390

19:36

12-Июл-18

Еще никто не оставлял запись к записи скачать торрент [VIDEO] Tomb Raider: Лара Крофт Tomb Raider . Будь первым!

!Обратная связь