Download | Exquis chocolat | Deviation 2012 m720p BluRay x264 BiRD

Скачать через торрент [VIDEO] Tomb Raider: Лара Крофт Tomb Raider бесплатно русская версия torrent активатор

Статистика раздачи
Размер:  2.58 GB   |    Зарегистрирован:  16 дней   |    .torrent скачан:  19 раз   |   
Раздают:  1  
   
загрузка...
 
Автор Сообщение

Galfimbul

avatar Galfimbul


Tomb Raider: Лара Крофт / Tomb Raider


Год выпуска: 2018
Страна: Великобритания, США
Жанр: фэнтези, боевик, приключения
Продолжительность: 01:57:50
Перевод №1: русский Профессиональный (полное дублирование) BD EUR
Перевод №2: украинский Профессиональный (полное дублирование) Postmodern
Оригинальная дорожка: Есть
Субтитры: русские (форсированные), (полные), английские (полные), (SDH)
Режиссер: Роар Утхауг / Roar Uthaug
В ролях: Алисия Викандер, Доминик Уэст, Уолтон Гоггинс, Дэниэл Ву, Кристин Скотт Томас, Дерек Джекоби, Александр Виллауме, Тамер Барджаг, Эдриан Коллинз, Кинэн Эррисон, Андриан Мазив, Милтон Шорр, Ханна Джон-Кэймен, Питер Уэйсон, Сэмюэл Мак, Скай Янг и другие .
Описание: Лара Крофт — весьма самостоятельная дочь эксцентричного искателя приключений, который пропал, едва она стала подростком. Теперь ей двадцать один, она бесцельно проживает свою жизнь, курьером рассекая на байке по забитым улицам восточного Лондона. Решительно настроенная пробиться сама, она отказывается брать на себя руководство глобальной империей отца, столь же категорично отвергая мысль о том, что он действительно пропал. Слыша советы о том, что ей нужно смириться с этим фактом и жить дальше после семи лет бесплодных поисков, Лара уже и сама не понимает, что же заставляет ее распутывать обстоятельства его таинственного исчезновения .
Релиз группы

Качество: BDRip / рип с Blu-ray disc 1080p [EUR]
Формат: MP4
Видео кодек: H.264
Аудио кодек: AAC
Видео: 1280x534 AR:2.40 2750 kbps 23.976 fps
Аудио №1: [Russian] 2ch 48 kHz 128 kbps - [Dub] Профессиональный (полное дублирование) BD EUR
Аудио №2: [Ukrainian] 2ch 48 kHz 128 kbps - [Dub] Профессиональный (полное дублирование) Postmodern
Аудио №3: [English] 2ch 48 kHz 128 kbps - Original
avs [info]: 1280x534p 1:1 @ 24000/1001 fps (cfr)
x264 [info]: using SAR=1/1
x264 [info]: using cpu capabilities: MMX2 SSE2Fast SSSE3 SSE4.2 AVX FMA3 BMI2 AVX2
x264 [info]: profile High, level 4.1

x264 [info]: frame I:1739 Avg QP:15.78 size: 85661
x264 [info]: frame P:44908 Avg QP:19.32 size: 27357
x264 [info]: frame B:122874 Avg QP:21.32 size: 8552
x264 [info]: consecutive B-frames: 5.5% 6.9% 12.3% 20.0% 17.9% 28.7% 5.0% 1.3% 2.5%
x264 [info]: mb I I16..4: 5.6% 77.4% 17.0%
x264 [info]: mb P I16..4: 1.3% 10.8% 1.7% P16..4: 34.3% 36.2% 9.2% 0.0% 0.0% skip: 6.4%
x264 [info]: mb B I16..4: 0.1% 1.2% 0.2% B16..8: 36.6% 18.5% 2.3% direct: 4.2% skip:36.9% L0:43.0% L1:45.7% BI:11.3%
x264 [info]: 8x8 transform intra:78.5% inter:65.9%
x264 [info]: direct mvs spatial:97.7% temporal:2.3%
x264 [info]: coded y,uvDC,uvAC intra: 82.9% 74.6% 42.6% inter: 22.1% 16.5% 5.5%
x264 [info]: i16 v,h,dc,p: 24% 15% 5% 55%
x264 [info]: i8 v,h,dc,ddl,ddr,vr,hd,vl,hu: 9% 6% 5% 10% 15% 14% 14% 12% 14%
x264 [info]: i4 v,h,dc,ddl,ddr,vr,hd,vl,hu: 12% 9% 5% 8% 15% 14% 14% 11% 13%
x264 [info]: i8c dc,h,v,p: 35% 28% 19% 17%
x264 [info]: Weighted P-Frames: Y:14.6% UV:9.8%
x264 [info]: ref P L0: 52.1% 11.6% 16.4% 6.3% 4.7% 3.4% 3.0% 1.9% 0.5% 0.1%
x264 [info]: ref B L0: 79.7% 10.1% 4.8% 2.3% 1.6% 1.0% 0.4%
x264 [info]: ref B L1: 95.4% 4.6%
x264 [info]: kb/s:2747.57

encoded 169521 frames, 10.08 fps, 2747.57 kb/s
GeneralComplete name : K:\Torrents\Tomb Raider.2018.BDRip.x264.1280x.rip by Frost O.S.mp4Format : MPEG-4Format profile : 3GPP Release 6 GeneralCodec ID : 3gg6 (isom/3gg6/mp42)File size : 2.58 GiBDuration : 1 h 57 minOverall bit rate mode : VariableOverall bit rate : 3 139 kb/sEncoded date : UTC 2018-07-01 14:41:31Tagged date : UTC 2018-07-01 14:41:31Writing application : Yamb 2.1.0.0

VideoID : 1Format : AVCFormat/Info : Advanced Video CodecFormat profile : [email protected] settings : CABAC / 8 Ref FramesFormat settings, CABAC : YesFormat settings, ReFrames : 8 framesCodec ID : avc1Codec ID/Info : Advanced Video CodingDuration : 1 h 57 minBit rate : 2 750 kb/sMaximum bit rate : 10.4 Mb/sWidth : 1 280 pixelsHeight : 534 pixelsDisplay aspect ratio : 2.40:1Frame rate mode : ConstantFrame rate : 23.976 (24000/1001) FPSColor space : YUVChroma subsampling : 4:2:0Bit depth : 8 bitsScan type : ProgressiveBits/(Pixel*Frame) : 0.168Stream size : 2.26 GiB (88%)Writing library : x264 core 152 r2851 ba24899Encoding settings : cabac=1 / ref=8 / deblock=1:-2:-2 / analyse=0x3:0x113 / me=umh / subme=11 / psy=1 / psy_rd=1.00:0.00 / mixed_ref=1 / me_range=32 / chroma_me=1 / trellis=2 / 8x8dct=1 / cqm=0 / deadzone=21,11 / fast_pskip=0 / chroma_qp_offset=-2 / threads=6 / lookahead_threads=1 / sliced_threads=0 / nr=0 / decimate=0 / interlaced=0 / bluray_compat=0 / constrained_intra=0 / bframes=8 / b_pyramid=2 / b_adapt=2 / b_bias=0 / direct=3 / weightb=1 / open_gop=0 / weightp=2 / keyint=250 / keyint_min=23 / scenecut=40 / intra_refresh=0 / rc=2pass / mbtree=0 / bitrate=2750 / ratetol=1.0 / qcomp=0.70 / qpmin=0 / qpmax=69 / qpstep=4 / cplxblur=20.0 / qblur=0.5 / ip_ratio=1.40 / pb_ratio=1.30 / aq=1:0.80Encoded date : UTC 2018-06-30 19:28:38Tagged date : UTC 2018-07-01 14:42:22Color range : LimitedColor primaries : BT.709Transfer characteristics : BT.709Matrix coefficients : BT.709

Audio #1ID : 2Format : AACFormat/Info : Advanced Audio CodecFormat profile : LCCodec ID : mp4a-40-2Duration : 1 h 57 minBit rate mode : VariableBit rate : 128 kb/sMaximum bit rate : 138 kb/sChannel(s) : 2 channelsChannel positions : Front: L RSampling rate : 48.0 kHzFrame rate : 46.875 FPS (1024 SPF)Compression mode : LossyStream size : 108 MiB (4%)Title : Russian / Dub, BD EUREncoded date : UTC 2018-07-01 14:25:24Tagged date : UTC 2018-07-01 14:42:22

Audio #2ID : 3Format : AACFormat/Info : Advanced Audio CodecFormat profile : LCCodec ID : mp4a-40-2Duration : 1 h 57 minBit rate mode : VariableBit rate : 128 kb/sMaximum bit rate : 136 kb/sChannel(s) : 2 channelsChannel positions : Front: L RSampling rate : 48.0 kHzFrame rate : 46.875 FPS (1024 SPF)Compression mode : LossyStream size : 108 MiB (4%)Title : Ukrainian / Dub, PostmodernEncoded date : UTC 2018-07-01 14:33:55Tagged date : UTC 2018-07-01 14:42:22

Audio #3ID : 4Format : AACFormat/Info : Advanced Audio CodecFormat profile : LCCodec ID : mp4a-40-2Duration : 1 h 57 minBit rate mode : VariableBit rate : 128 kb/sMaximum bit rate : 135 kb/sChannel(s) : 2 channelsChannel positions : Front: L RSampling rate : 48.0 kHzFrame rate : 46.875 FPS (1024 SPF)Compression mode : LossyStream size : 108 MiB (4%)Title : English / OriginalEncoded date : UTC 2018-07-01 14:19:24Tagged date : UTC 2018-07-01 14:42:22

Text #1ID : 5Format : Timed TextCodec ID : tx3gDuration : 1 h 52 minBit rate mode : VariableBit rate : 2 b/sStream size : 1.47 KiB (0%)Title : Russian / ForcedForced : NoEncoded date : UTC 2018-07-01 14:42:22Tagged date : UTC 2018-07-01 14:42:22

Text #2ID : 6Format : Timed TextCodec ID : tx3gDuration : 1 h 52 minBit rate mode : VariableBit rate : 46 b/sStream size : 37.7 KiB (0%)Title : Russian / FullForced : NoEncoded date : UTC 2018-07-01 14:42:22Tagged date : UTC 2018-07-01 14:42:22

Text #3ID : 7Format : Timed TextCodec ID : tx3gDuration : 1 h 51 minBit rate mode : VariableBit rate : 33 b/sStream size : 27.2 KiB (0%)Title : English / FullForced : NoEncoded date : UTC 2018-07-01 14:42:22Tagged date : UTC 2018-07-01 14:42:22

Text #4ID : 8Format : Timed TextCodec ID : tx3gDuration : 1 h 51 minBit rate mode : VariableBit rate : 40 b/sStream size : 32.7 KiB (0%)Title : English / SDHForced : NoEncoded date : UTC 2018-07-01 14:42:22Tagged date : UTC 2018-07-01 14:42:22


Трекер:  [ 01-Июл-2018 18:36 ]

  

Скачать .torrent

Размер .torrent файла 13 KB


Размер: 2.58 GB
Хэш (hash) релиза: c0404b001ae47f7ac1c973e66b343b99c10465fc

Торренты, похожие на [VIDEO] Tomb Raider: Лара Крофт Tomb Raider скачать торрент

Форум Название Автор Размер S L Добавлен
Видео (Фильмы/Клипы) ·%· [VIDEO] Tomb Raider: Лара Крофт / Tomb Raider (Роар Утхауг / Roar Uthaug) [2018, фэнтези, боевик, приключения, BDRip] [3GP, 320x] Dub BD EUR Galfimbul 424844315405 MB 0 0 1530459396

18:36

1-Июл-18

Видео (Фильмы/Клипы) ·%· [VIDEO] Tomb Raider: Лара Крофт / Tomb Raider (Роар Утхауг / Roar Uthaug) [2018, фэнтези, боевик, приключения, BDRip] [MP4, 960x] Dub (Rus, Ukr), Original, Sub (rus, eng) Galfimbul 18830260771.75 GB 0 0 1530459387

18:36

1-Июл-18

Видео (Фильмы/Клипы) ·%· [VIDEO] Tomb Raider: Лара Крофт / Tomb Raider (Роар Утхауг / Roar Uthaug) [2018, фэнтези, боевик, приключения, BDRip] [MP4, 480x] Dub BD EUR Galfimbul 557129870531 MB 0 0 1530459372

18:36

1-Июл-18

Видео (Фильмы/Клипы) ·%· [VIDEO] Лара Крофт: Дилогия / Lara Croft Tomb Raider: Dilogy (Саймон Уэст / Simon West, Ян де Бонт / Jan de Bont) [2001-2003, фэнтези, боевик, триллер, приключения, BDRip] [3GP, 320x] Dub Galfimbul 785478885749 MB 0 0 1531413440

19:37

12-Июл-18

Видео (Фильмы/Клипы) ·%· [VIDEO] Лара Крофт: Дилогия / Lara Croft Tomb Raider: Dilogy (Саймон Уэст / Simon West, Ян де Бонт / Jan de Bont) [2001-2003, фэнтези, боевик, триллер, приключения, BDRip] [MP4, 1280x] Galfimbul 63264052775.89 GB 0 0 1531413408

19:36

12-Июл-18

Видео (Фильмы/Клипы) ·%· [VIDEO] Лара Крофт: Дилогия / Lara Croft Tomb Raider: Dilogy (Саймон Уэст / Simon West, Ян де Бонт / Jan de Bont) [2001-2003, фэнтези, боевик, триллер, приключения, BDRip] [MP4, 960x] Galfimbul 42777914563.98 GB 0 0 1531413399

19:36

12-Июл-18

Видео (Фильмы/Клипы) ·%· [VIDEO] Лара Крофт: Дилогия / Lara Croft Tomb Raider: Dilogy (Саймон Уэст / Simon West, Ян де Бонт / Jan de Bont) [2001-2003, фэнтези, боевик, триллер, приключения, BDRip] [MP4, 480x] Dub Galfimbul 1035381453987 MB 0 0 1531413390

19:36

12-Июл-18

Еще никто не оставлял запись к записи скачать торрент [VIDEO] Tomb Raider: Лара Крофт Tomb Raider . Будь первым!

!Обратная связь