Le Prince d’Égypte | Terra Mare 2 (0) | Russian Community

Скачать через торрент [VIDEO] Tomb Raider: Лара Крофт Tomb Raider бесплатно русская версия torrent активатор

Статистика раздачи
Размер:  531 MB   |    Зарегистрирован:  2 месяца 20 дней   |    .torrent скачан:  17 раз   |   
Раздают:  1  
   
загрузка...
 
Автор Сообщение

Galfimbul

avatar Galfimbul


Tomb Raider: Лара Крофт / Tomb Raider


Год выпуска: 2018
Страна: Великобритания, США
Жанр: фэнтези, боевик, приключения
Продолжительность: 01:57:50
Перевод: русский Профессиональный (полное дублирование) BD EUR
Субтитры: нет
Режиссер: Роар Утхауг / Roar Uthaug
В ролях: Алисия Викандер, Доминик Уэст, Уолтон Гоггинс, Дэниэл Ву, Кристин Скотт Томас, Дерек Джекоби, Александр Виллауме, Тамер Барджаг, Эдриан Коллинз, Кинэн Эррисон, Андриан Мазив, Милтон Шорр, Ханна Джон-Кэймен, Питер Уэйсон, Сэмюэл Мак, Скай Янг и другие .
Описание: Лара Крофт — весьма самостоятельная дочь эксцентричного искателя приключений, который пропал, едва она стала подростком. Теперь ей двадцать один, она бесцельно проживает свою жизнь, курьером рассекая на байке по забитым улицам восточного Лондона. Решительно настроенная пробиться сама, она отказывается брать на себя руководство глобальной империей отца, столь же категорично отвергая мысль о том, что он действительно пропал. Слыша советы о том, что ей нужно смириться с этим фактом и жить дальше после семи лет бесплодных поисков, Лара уже и сама не понимает, что же заставляет ее распутывать обстоятельства его таинственного исчезновения .
Релиз группы

Качество: BDRip / рип с Blu-ray disc 1080p [EUR]
Формат: MP4
Видео кодек: XviD
Аудио кодек: AAC
Видео: 480x200 AR:2.40 499 kbps 23.976 fps
Аудио: [Russian] 2ch 48 kHz 128 kbps - [Dub] Профессиональный (полное дублирование) BD EUR
GeneralComplete name : K:\Torrents\Tomb Raider.2018.BDRip.XviD.480x.rip by Frost O.S.mp4Format : MPEG-4Format profile : 3GPP Media Release 5Codec ID : 3gp5 (isom/3gp5/3gp4/mp41/mp42)File size : 531 MiBDuration : 1 h 57 minOverall bit rate mode : VariableOverall bit rate : 630 kb/sEncoded date : UTC 2018-07-01 14:55:48Tagged date : UTC 2018-07-01 14:55:48

VideoID : 1Format : MPEG-4 VisualFormat profile : Advanced [email protected] settings : BVOP / Custom MatrixFormat settings, BVOP : YesFormat settings, QPel : NoFormat settings, GMC : No warppointsFormat settings, Matrix : CustomCodec ID : mp4v-20Duration : 1 h 57 minBit rate mode : VariableBit rate : 499 kb/sMaximum bit rate : 3 389 kb/sWidth : 480 pixelsHeight : 200 pixelsDisplay aspect ratio : 2.40:1Frame rate mode : ConstantFrame rate : 23.976 (24000/1001) FPSColor space : YUVChroma subsampling : 4:2:0Bit depth : 8 bitsScan type : ProgressiveCompression mode : LossyBits/(Pixel*Frame) : 0.217Stream size : 420 MiB (79%)Title : [email protected]-DEV-rev248-g39d5978-masterWriting library : XviD 1.2.1 (UTC 2008-12-04)Encoded date : UTC 2018-07-01 12:03:43Tagged date : UTC 2018-07-01 14:55:52

AudioID : 2Format : AACFormat/Info : Advanced Audio CodecFormat profile : LCCodec ID : mp4a-40-2Duration : 1 h 57 minBit rate mode : VariableBit rate : 128 kb/sMaximum bit rate : 138 kb/sChannel(s) : 2 channelsChannel positions : Front: L RSampling rate : 48.0 kHzFrame rate : 46.875 FPS (1024 SPF)Compression mode : LossyStream size : 108 MiB (20%)Title : Russian / Dub, BD EUREncoded date : UTC 2018-07-01 14:25:24Tagged date : UTC 2018-07-01 14:55:52


Трекер:  [ 01-Июл-2018 18:36 ]

  

Скачать .torrent

Размер .torrent файла 11 KB


Размер: 531 MB
Хэш (hash) релиза: 5e9daf4c2d585c429740c302438edb5ec34540ed

Торренты, похожие на [VIDEO] Tomb Raider: Лара Крофт Tomb Raider скачать торрент

Форум Название Автор Размер S L Добавлен
Видео (Фильмы/Клипы) ·%· [VIDEO] Tomb Raider: Лара Крофт / Tomb Raider (Роар Утхауг / Roar Uthaug) [2018, фэнтези, боевик, приключения, BDRip] [3GP, 320x] Dub BD EUR Galfimbul 424844315405 MB 0 0 1530459396

18:36

1-Июл-18

Видео (Фильмы/Клипы) ·%· [VIDEO] Tomb Raider: Лара Крофт / Tomb Raider (Роар Утхауг / Roar Uthaug) [2018, фэнтези, боевик, приключения, BDRip] [MP4, 960x] Dub (Rus, Ukr), Original, Sub (rus, eng) Galfimbul 18830260771.75 GB 0 0 1530459387

18:36

1-Июл-18

Видео (Фильмы/Клипы) ·%· [VIDEO] Tomb Raider: Лара Крофт / Tomb Raider (Роар Утхауг / Roar Uthaug) [2018, фэнтези, боевик, приключения, BDRip] [MP4, 1280x] Dub (Rus, Ukr), Original, Sub (rus, eng) Galfimbul 27743531722.58 GB 0 0 1530459379

18:36

1-Июл-18

Видео (Фильмы/Клипы) ·%· [VIDEO] Лара Крофт: Дилогия / Lara Croft Tomb Raider: Dilogy (Саймон Уэст / Simon West, Ян де Бонт / Jan de Bont) [2001-2003, фэнтези, боевик, триллер, приключения, BDRip] [3GP, 320x] Dub Galfimbul 785478885749 MB 0 0 1531413440

19:37

12-Июл-18

Видео (Фильмы/Клипы) ·%· [VIDEO] Лара Крофт: Дилогия / Lara Croft Tomb Raider: Dilogy (Саймон Уэст / Simon West, Ян де Бонт / Jan de Bont) [2001-2003, фэнтези, боевик, триллер, приключения, BDRip] [MP4, 1280x] Galfimbul 63264052775.89 GB 0 0 1531413408

19:36

12-Июл-18

Видео (Фильмы/Клипы) ·%· [VIDEO] Лара Крофт: Дилогия / Lara Croft Tomb Raider: Dilogy (Саймон Уэст / Simon West, Ян де Бонт / Jan de Bont) [2001-2003, фэнтези, боевик, триллер, приключения, BDRip] [MP4, 960x] Galfimbul 42777914563.98 GB 0 0 1531413399

19:36

12-Июл-18

Видео (Фильмы/Клипы) ·%· [VIDEO] Лара Крофт: Дилогия / Lara Croft Tomb Raider: Dilogy (Саймон Уэст / Simon West, Ян де Бонт / Jan de Bont) [2001-2003, фэнтези, боевик, триллер, приключения, BDRip] [MP4, 480x] Dub Galfimbul 1035381453987 MB 0 0 1531413390

19:36

12-Июл-18

Еще никто не оставлял запись к записи скачать торрент [VIDEO] Tomb Raider: Лара Крофт Tomb Raider . Будь первым!

!Обратная связь