Julia Roberts | 너의의미, | An evaluation of the advantages and disadvantages of deterministic ...

Скачать через торрент Просто роман Серии: 1-4 из 4 Фильм бесплатно в хорошем качестве torrent

Скачивайте на UnionPeer.org фильмы через торрент без регистрации. Новинки кино в хорошем качестве через торрент. На UnionPeer.org можно скачать через торрент фильмы 2014 и 2015 годов. Самые новые фильмы.

Скачать торрент Просто роман Серии: 1-4 из 4 бесплатно через .torrent фильм мультфильм сериал

Статистика раздачи
Размер:  2.73 GB   |    Зарегистрирован:  17 дней   |    .torrent скачан:  55 раз   |   
Раздают:  1  
   
загрузка...
 
Автор Сообщение

Galfimbul

avatar Galfimbul


Просто роман

Год выпуска: 2018
Производство: кинокомпания "Русское"
Жанр: мелодрама
Продолжительность: ~00:45:00 серия
Субтитры: нет

Режиссёр: Борис Рабей

В ролях: Наталия Антонова, Эдуард Трухменёв, Роман Евдокимов, Яна Палецкая, Татьяна Максимова, Артур Ваха, Мария Погребничко, Татьяна Журавлева, Яна Комарова, Роман Ладнев, Марина Кондратьева

Описание: Марина и Илья — прекрасная пара, счастливые и влюблённые на зависть окружающим. Но мало кто знает, что у них не семья, а… просто роман, «легкие отношения». Да и кто сегодня запретит двум взрослым и самодостаточным людям просто встречаться, любить друг друга без штампа в паспорте и быть счастливыми, ничем не обременяя друг друга?

Реклама: Нет.

Кинопоиск
Все раздачи сериала
Sample

Качество: WEBRip - Files-x
Формат: AVI
Видео кодек: XviD
Аудио кодек: AC3
Видео: 720x400 (1.80:1), 25 fps, XviD build 73 ~2000 kbps avg, 0.270 bit/pixel
Аудио: 48.0 kHz, AC3 Dolby Digital, 2/0 (L,R) ch, ~ 192 kbps
General
Complete name : D:\Просто роман (2018). WEB-DLRip.Files-x\1, Просто роман (2018). WEB-DLRip.Files-x.avi
Format : AVI
Format/Info : Audio Video Interleave
File size : 1.37 GiB
Duration : 1 h 31 min
Overall bit rate : 2 146 kb/s
Writing application : VirtualDubMod 1.5.10.3 | www.virtualdub-fr.org || (build 2550/release)
Writing library : VirtualDubMod build 2550/release

Video
ID : 0
Format : MPEG-4 Visual
Format profile : Advanced [email protected]
Format settings : BVOP1 / Custom Matrix
Format settings, BVOP : 1
Format settings, QPel : No
Format settings, GMC : No warppoints
Format settings, Matrix : Custom
Codec ID : XVID
Codec ID/Hint : XviD
Duration : 1 h 31 min
Bit rate : 1 945 kb/s
Width : 720 pixels
Height : 400 pixels
Display aspect ratio : 16:9
Frame rate : 25.000 FPS
Color space : YUV
Chroma subsampling : 4:2:0
Bit depth : 8 bits
Scan type : Progressive
Compression mode : Lossy
Bits/(Pixel*Frame) : 0.270
Stream size : 1.24 GiB (91%)
Writing library : XviD 73

Audio
ID : 1
Format : AC-3
Format/Info : Audio Coding 3
Codec ID : 2000
Duration : 1 h 31 min
Bit rate mode : Constant
Bit rate : 192 kb/s
Channel(s) : 2 channels
Channel positions : Front: L R
Sampling rate : 48.0 kHz
Frame rate : 31.250 FPS (1536 SPF)
Bit depth : 16 bits
Compression mode : Lossy
Stream size : 125 MiB (9%)
Alignment : Split accross interleaves
Interleave, duration : 40 ms (1.00 video frame)
Interleave, preload duratio : 500 ms
Service kind : Complete Main


Трекер:  [ 01-Июл-2018 18:12 ]

  

Скачать .torrent

Размер .torrent файла 14 KB


Размер: 2.73 GB
Хэш (hash) релиза: 7ccafae7694ad49d2658f97b635ccdd883a97f8a
Подписка на обновления:

Торренты, похожие на Просто роман Серии: 1-4 из 4 скачать торрент

Форум Название Автор Размер S L Добавлен
Российские сериалы ·%· Просто роман / Серии: 1-4 из 4 (Борис Рабей) [2018, мелодрама, HDTVRip 720p] Galfimbul 57286989915.34 GB 0 0 1530448942

15:42

1-Июл-18

Российские сериалы ·· Прости / Серии: 1-4 из 4 (Роман Барабаш) [2016, мелодрама, SATRip] Galfimbul 25706618882.39 GB 0 0 1474984017

16:46

27-Сен-16

Российские сериалы ·· Прости / Серии: 1-4 из 4 (Роман Барабаш) [2016, Мелодрама, DVB] Galfimbul 63295700885.89 GB 0 0 1474812823

17:13

25-Сен-16

Еще никто не оставлял запись к записи скачать торрент Просто роман Серии: 1-4 из 4 . Будь первым!

!Обратная связь