Jugend XL Schwarz X Hyperstrong Large Gürtel Camo Schwarz Dunkelgrau Padded Nike Dunkelgrau fw1dqxHH | Boss (0) | Travesuras de una Princesa

Скачать через торрент Пляж. Жаркий сезон Сезон: 2 Фильм бесплатно в хорошем качестве torrent

Скачивайте на UnionPeer.org фильмы через торрент без регистрации. Новинки кино в хорошем качестве через торрент. На UnionPeer.org можно скачать через торрент фильмы 2014 и 2015 годов. Самые новые фильмы.

Скачать торрент Пляж. Жаркий сезон Сезон: 2 бесплатно через .torrent фильм мультфильм сериал

Статистика раздачи
Размер:  1.27 GB   |    Зарегистрирован:  2 месяца 23 дня   |    .torrent скачан:  60 раз   |   
Раздают:  1  
   
загрузка...
 
Автор Сообщение

Galfimbul

avatar Galfimbul


Пляж. Жаркий сезон

Год выпуска: 2017
Производство: "Браво"
Жанр: детектив
Продолжительность: ~00:50:00 серия
Субтитры: нет

Режиссёр: Леонид Белозорович

В ролях: Павел Делонг, Георгий Дронов, Елена Аросьева, Мария Горбань, Юлия Харьковская, Екатерина Сапрыкина, Олег Метелев, Денис Доронин, Сергей Басок, Кристина Курбанова
Описание: Продолжение сериала "Пляж".
Приятели продолжают патрулировать морское побережье и охранять покой отдыхающих. Но теперь Андрей Гошко берется еще и наладить работу в местном отделении полиции, которое погрязло в коррупции и скандалах. Да и его другу Сергею предстоит борьба с местными казнокрадами, проститутками и подпольными игорными заведениями, которые в сезон отпусков пытаются получить сверхприбыль на отдыхающих.

Реклама: Нет.

Кинопоиск | Кино-театр

Sample

Качество: WEBRip - Files-x
Формат: AVI
Видео кодек: XviD
Аудио кодек: AC3
Видео: 720x400 (1.80:1), 25 fps, XviD build 73 ~1600 kbps avg, 0.222 bit/pixel
Аудио: 48.0 kHz, AC3 Dolby Digital, 2/0 (L,R) ch, ~ 192 kbps
Раздача ведётся путём добавления новых серий, при каждом добавлении создаётся новый торрент. Чтобы начать докачку новой серии, пользователям необходимо сделать следующее:

- Остановить скачивание.
- Удалить старый торрент у себя из клиента (старые серии удалять не надо).
- Скачать новый торрент и запустить его у себя в клиенте вместо старого, при этом указать клиенту путь в старую папку куда и должно происходить скачивание новых серий.

Ваш клиент при этом должен произвести хеширование (проверку) старой папки (если не производит сам - помогите ему сделать это), и будет докачивать только те серии которых у вас ещё нет. Старые серии при этом не удаляются, а продолжают раздаваться!
Если вы уже удалили старые серии, то предотвратить повторную закачку старых серий можно, отжав галочку в соответствующих местах при запуске нового торрента. По возможности, желательно не удалять старые серии как можно дольше, чтобы релизер не столько продолжал раздавать старые серии, а смог сконцентрироваться на новых.
General
Complete name : D:\Пляж. Жаркий сезон. (2017) WEB-DLRip. Files\01. Пляж. Жаркий сезон. 2017. WEB-DLRip. Files-x.avi
Format : AVI
Format/Info : Audio Video Interleave
File size : 650 MiB
Duration : 50 min 35 s
Overall bit rate : 1 797 kb/s
Writing application : VirtualDubMod 1.5.10.3 | www.virtualdub-fr.org || (build 2550/release)
Writing library : VirtualDubMod build 2550/release
IsTruncated : Yes

Video
ID : 0
Format : MPEG-4 Visual
Format profile : Advanced [email protected]
Format settings : BVOP2
Format settings, BVOP : 2
Format settings, QPel : No
Format settings, GMC : No warppoints
Format settings, Matrix : Default (H.263)
Codec ID : XVID
Codec ID/Hint : XviD
Duration : 50 min 35 s
Bit rate : 1 595 kb/s
Width : 720 pixels
Height : 400 pixels
Display aspect ratio : 16:9
Frame rate : 25.000 FPS
Color space : YUV
Chroma subsampling : 4:2:0
Bit depth : 8 bits
Scan type : Progressive
Compression mode : Lossy
Bits/(Pixel*Frame) : 0.222
Stream size : 577 MiB (89%)
Writing library : XviD 1.2.1 (UTC 2008-12-04)

Audio
ID : 1
Format : AC-3
Format/Info : Audio Coding 3
Codec ID : 2000
Duration : 50 min 35 s
Bit rate mode : Constant
Bit rate : 192 kb/s
Channel(s) : 2 channels
Channel positions : Front: L R
Sampling rate : 48.0 kHz
Frame rate : 31.250 FPS (1536 SPF)
Bit depth : 16 bits
Compression mode : Lossy
Stream size : 69.5 MiB (11%)
Alignment : Split accross interleaves
Interleave, duration : 40 ms (1.00 video frame)
Interleave, preload duratio : 500 ms
Service kind : Complete Main


Трекер:  [ 01-Июл-2018 00:12 ]

  

Скачать .torrent

Размер .torrent файла 13 KB


Размер: 1.27 GB
Хэш (hash) релиза: cf92a3c012d354592005a176ee25a17c800405a3
Подписка на обновления:

Торренты, похожие на Пляж. Жаркий сезон Сезон: 2 скачать торрент

Форум Название Автор Размер S L Добавлен
Российские сериалы ·%· Пляж. Жаркий сезон / Сезон: 2 / Серии: 1-2 из 16 (Леонид Белозорович) [2018, детектив, WEBRip 1080p] Galfimbul 46887830754.37 GB 0 0 1530389561

23:12

30-Июн-18

Еще никто не оставлял запись к записи скачать торрент Пляж. Жаркий сезон Сезон: 2 . Будь первым!

!Обратная связь