Life Of The ... | Impulse S01E01 XviD-AFG 1 hour | Fate/kaleid liner Prisma☆Illya 2wei Herz! | 480p | BDRip | Dual Audio

Скачать через торрент Пляж. Жаркий сезон Сезон: 2 Фильм бесплатно в хорошем качестве torrent

Скачивайте на UnionPeer.org фильмы через торрент без регистрации. Новинки кино в хорошем качестве через торрент. На UnionPeer.org можно скачать через торрент фильмы 2014 и 2015 годов. Самые новые фильмы.

Скачать торрент Пляж. Жаркий сезон Сезон: 2 бесплатно через .torrent фильм мультфильм сериал

Статистика раздачи
Размер:  4.37 GB   |    Зарегистрирован:  20 дней   |    .torrent скачан:  47 раз   |   
Раздают:  1  
   
загрузка...
 
Автор Сообщение

Galfimbul

avatar Galfimbul


Пляж. Жаркий сезон

Год выпуска: 2018
Производство: "Браво"
Жанр: детектив
Продолжительность: ~00:50:00 серия
Субтитры: нет

Режиссёр: Леонид Белозорович

В ролях: Павел Делонг, Георгий Дронов, Елена Аросьева, Мария Горбань, Юлия Харьковская, Екатерина Сапрыкина, Олег Метелев, Денис Доронин, Сергей Басок, Кристина Курбанова
Описание: Продолжение сериала "Пляж".
Приятели продолжают патрулировать морское побережье и охранять покой отдыхающих. Но теперь Андрей Гошко берется еще и наладить работу в местном отделении полиции, которое погрязло в коррупции и скандалах. Да и его другу Сергею предстоит борьба с местными казнокрадами, проститутками и подпольными игорными заведениями, которые в сезон отпусков пытаются получить сверхприбыль на отдыхающих.

Реклама: Нет.

Кинопоиск | Кино-театр

Sample

Качество: WEBRip 1080p - Nikolspup
Формат: MKV
Видео кодек: H.264
Аудио кодек: AC3
Видео: MPEG4 AVC Video, H264, 16:9, 1920x1080, 25 fps, ~6000 kbps, 0.116 bit/pixel
Аудио: AC3 Dolby Digital, 48.0 kHz, 2/0 (L,R) ch, 192 kbps
Раздача ведётся путём добавления новых серий, при каждом добавлении создаётся новый торрент. Чтобы начать докачку новой серии, пользователям необходимо сделать следующее:

- Остановить скачивание.
- Удалить старый торрент у себя из клиента (старые серии удалять не надо).
- Скачать новый торрент и запустить его у себя в клиенте вместо старого, при этом указать клиенту путь в старую папку куда и должно происходить скачивание новых серий.

Ваш клиент при этом должен произвести хеширование (проверку) старой папки (если не производит сам - помогите ему сделать это), и будет докачивать только те серии которых у вас ещё нет. Старые серии при этом не удаляются, а продолжают раздаваться!
Если вы уже удалили старые серии, то предотвратить повторную закачку старых серий можно, отжав галочку в соответствующих местах при запуске нового торрента. По возможности, желательно не удалять старые серии как можно дольше, чтобы релизер не столько продолжал раздавать старые серии, а смог сконцентрироваться на новых.
General
Unique ID : 223724704966551058295416288909602411465 (0xA84FCF947BC518EA8D8D211A104553C9)
Complete name : D:\Plyazh.Zharkij.sezon.2017.WEB-DL.(1080p).Nikolspup\Plyazh.Zharkij.sezon.(01.seriya.iz.16).2017.WEB-DL.(1080p).Nikolspup.mkv
Format : Matroska
Format version : Version 4 / Version 2
File size : 2.17 GiB
Duration : 50 min 15 s
Overall bit rate mode : Constant
Overall bit rate : 6 189 kb/s
Encoded date : UTC 2018-06-30 18:18:11
Writing application : mkvmerge v7.8.0 ('River Man') 32bit built on Mar 27 2015 16:18:02
Writing library : libebml v1.3.1 + libmatroska v1.4.2

Video
ID : 1
Format : AVC
Format/Info : Advanced Video Codec
Format profile : [email protected]
Format settings : 2 Ref Frames
Format settings, CABAC : No
Format settings, ReFrames : 2 frames
Codec ID : V_MPEG4/ISO/AVC
Duration : 50 min 14 s
Bit rate mode : Constant
Bit rate : 6 000 kb/s
Width : 1 920 pixels
Height : 1 080 pixels
Display aspect ratio : 16:9
Frame rate mode : Constant
Frame rate : 25.000 FPS
Standard : PAL
Color space : YUV
Chroma subsampling : 4:2:0
Bit depth : 8 bits
Scan type : Progressive
Bits/(Pixel*Frame) : 0.116
Stream size : 2.10 GiB (97%)
Default : Yes
Forced : No
Color range : Limited
Color primaries : BT.709
Transfer characteristics : BT.709
Matrix coefficients : BT.709

Audio
ID : 2
Format : AC-3
Format/Info : Audio Coding 3
Codec ID : A_AC3
Duration : 50 min 15 s
Bit rate mode : Constant
Bit rate : 192 kb/s
Channel(s) : 2 channels
Channel positions : Front: L R
Sampling rate : 48.0 kHz
Frame rate : 31.250 FPS (1536 SPF)
Bit depth : 16 bits
Compression mode : Lossy
Stream size : 69.0 MiB (3%)
Language : Russian
Service kind : Complete Main
Default : Yes
Forced : No


Трекер:  [ 30-Июн-2018 23:12 ]

  

Скачать .torrent

Размер .torrent файла 22 KB


Размер: 4.37 GB
Хэш (hash) релиза: 60651760a1c4c621370bdb5e05d1b89161c0fc9b
Подписка на обновления:

Торренты, похожие на Пляж. Жаркий сезон Сезон: 2 скачать торрент

Форум Название Автор Размер S L Добавлен
Российские сериалы ·%· Пляж. Жаркий сезон / Сезон: 2 / Серии: 1-2 из 16 (Леонид Белозорович) [2017, детектив, WEBRip] Galfimbul 13634416671.27 GB 0 0 1530393146

00:12

1-Июл-18

Еще никто не оставлял запись к записи скачать торрент Пляж. Жаркий сезон Сезон: 2 . Будь первым!

!Обратная связь