Three Worlds (2018) 1080p | Asphalt 9: Legends - 2018’s New Arcade Racing Game APK | Grace and Frankie

Скачать через торрент музыку Дневник Бриджит Джонс Bridget Jones - Schokolade Zum Frühstück бесплатно без регистрации torrent

Статистика раздачи
Размер:  387 MB   |    Зарегистрирован:  2 месяца 24 дня   |    .torrent скачан:  45 раз   |   
Раздают:  1  
   
загрузка...
 
Автор Сообщение

Galfimbul

avatar Galfimbul


Bridget Jones - Schokolade Zum Frühstück

Название альбома: Music From The Motion Picture
Жанр: Soundtrack
Год выпуска диска: 2001
Год выпуска фильма: 2001
Страна-производитель диска: Germany
Издатель (лейбл): Universal
Номер по каталогу: 548 795 - 2
Аудиокодек: FLAC (*.flac)
Тип рипа: tracks+.cue
Битрейт аудио: lossless
Продолжительность: 00:01:02
Источник: собственный рип
Наличие сканов в содержимом раздачи: нет



01 Gabrielle - Out Of Reach (3:16)
02 Aretha Franklin - Respect (2:23)
03 Geri Halliwell - It's Raining Men (4:11)
04 Robbie Williams - Have You Met Miss Jones? (2:31)
05 Chaka Khan - I'm Every Woman (4:05)
06 Sheryl Crow - Kiss That Girl (3:13)
07 Shelby Lynne - Killin' Kind (4:37)
08 Dina Carroll - Someone Like You (3:22)
09 Robbie Williams - Not Of This Earth (4:41)
10 Rosey - Love (3:39)
11 Diana Ross & Marvin Gaye - Stop. Look. Listen (To Your Heart) (2:50)
12 Shelby Lynne - Dreamsome (4:13)
13 Patrick Doyle - It's Only A Diary (4:25)
14 Alisha's Attic - Pretender Got My Heart (4:07)
15 Jamie O'Neal - All By Myself (4:36)
16 Aaron Soul - Ring. Ring. Ring (3:53)
Exact Audio Copy V1.3 from 2. September 2016

EAC extraction logfile from 29. June 2018, 10:41

Various / Bridget Jones's Diary

Used drive : TSSTcorpCDDVDW SN-208BB Adapter: 1 ID: 0

Read mode : SecureUtilize accurate stream : YesDefeat audio cache : YesMake use of C2 pointers : No

Read offset correction : 6Overread into Lead-In and Lead-Out : NoFill up missing offset samples with silence : YesDelete leading and trailing silent blocks : NoNull samples used in CRC calculations : YesUsed interface : Native Win32 interface for Win NT & 2000Gap handling : Appended to previous track

Used output format : User Defined EncoderSelected bitrate : 1024 kBit/sQuality : HighAdd ID3 tag : NoCommand line compressor : C:\Program Files (x86)\Exact Audio Copy\FLAC\FLAC.EXEAdditional command line options : -8 -V -T "artist=%artist%" -T "title=%title%" -T "album=%albumtitle%" -T "date=%year%" -T "tracknumber=%tracknr%" -T "genre=%genre%" %source%

TOC of the extracted CD

Track | Start | Length | Start sector | End sector --------------------------------------------------------- 1 | 0:00.00 | 3:16.40 | 0 | 14739 2 | 3:16.40 | 2:22.62 | 14740 | 25451 3 | 5:39.27 | 4:11.33 | 25452 | 44309 4 | 9:50.60 | 2:31.00 | 44310 | 55634 5 | 12:21.60 | 4:04.57 | 55635 | 73991 6 | 16:26.42 | 3:13.08 | 73992 | 88474 7 | 19:39.50 | 4:36.57 | 88475 | 109231 8 | 24:16.32 | 3:22.05 | 109232 | 124386 9 | 27:38.37 | 4:41.13 | 124387 | 145474 10 | 32:19.50 | 3:38.60 | 145475 | 161884 11 | 35:58.35 | 2:50.17 | 161885 | 174651 12 | 38:48.52 | 4:12.50 | 174652 | 193601 13 | 43:01.27 | 4:24.70 | 193602 | 213471 14 | 47:26.22 | 4:06.65 | 213472 | 231986 15 | 51:33.12 | 4:35.53 | 231987 | 252664 16 | 56:08.65 | 3:53.15 | 252665 | 270154

Track 1

Filename E:\Torrent\Various - Bridget Jones's Diary (Soundtrack)\01 - Gabrielle - Out Of Reach.wav

Pre-gap length 0:00:02.00

Peak level 86.5 % Extraction speed 1.4 X Track quality 99.9 % Test CRC F8FC4C99 Copy CRC F8FC4C99 Accurately ripped (confidence 79) [A7B3271A] (AR v2) Copy OK

Track 2

Filename E:\Torrent\Various - Bridget Jones's Diary (Soundtrack)\02 - Aretha Franklin - Respect.wav

Peak level 99.5 % Extraction speed 1.7 X Track quality 100.0 % Test CRC C624B2B5 Copy CRC C624B2B5 Accurately ripped (confidence 79) [FBBCC44D] (AR v2) Copy OK

Track 3

Filename E:\Torrent\Various - Bridget Jones's Diary (Soundtrack)\03 - Geri Halliwell - It's Raining Men.wav

Peak level 93.9 % Extraction speed 2.0 X Track quality 100.0 % Test CRC D4F189F2 Copy CRC D4F189F2 Accurately ripped (confidence 80) [DA4AB604] (AR v2) Copy OK

Track 4

Filename E:\Torrent\Various - Bridget Jones's Diary (Soundtrack)\04 - Robbie Williams - Have You Met Miss Jones.wav

Peak level 98.8 % Extraction speed 2.0 X Track quality 100.0 % Test CRC FD779D72 Copy CRC FD779D72 Accurately ripped (confidence 79) [04DA9BD7] (AR v2) Copy OK

Track 5

Filename E:\Torrent\Various - Bridget Jones's Diary (Soundtrack)\05 - Chaka Khan - I'm Every Woman.wav

Peak level 88.7 % Extraction speed 2.3 X Track quality 100.0 % Test CRC EECE046C Copy CRC EECE046C Accurately ripped (confidence 80) [7DE472E6] (AR v2) Copy OK

Track 6

Filename E:\Torrent\Various - Bridget Jones's Diary (Soundtrack)\06 - Sheryl Crow - Kiss That Girl.wav

Peak level 99.5 % Extraction speed 2.3 X Track quality 100.0 % Test CRC BEB0CCE3 Copy CRC BEB0CCE3 Accurately ripped (confidence 80) [C80D31E9] (AR v2) Copy OK

Track 7

Filename E:\Torrent\Various - Bridget Jones's Diary (Soundtrack)\07 - Shelby Lynne - Killin' Kind.wav

Peak level 93.9 % Extraction speed 2.5 X Track quality 100.0 % Test CRC 108B07B5 Copy CRC 108B07B5 Accurately ripped (confidence 80) [13B09F8C] (AR v2) Copy OK

Track 8

Filename E:\Torrent\Various - Bridget Jones's Diary (Soundtrack)\08 - Dina Carroll - Someone Like You.wav

Peak level 88.6 % Extraction speed 2.5 X Track quality 100.0 % Test CRC 37AF0632 Copy CRC 37AF0632 Accurately ripped (confidence 78) [5205F261] (AR v2) Copy OK

Track 9

Filename E:\Torrent\Various - Bridget Jones's Diary (Soundtrack)\09 - Robbie Williams - Not Of This Earth.wav

Peak level 92.8 % Extraction speed 2.5 X Track quality 99.9 % Test CRC B7E35CB8 Copy CRC B7E35CB8 Accurately ripped (confidence 77) [059912EE] (AR v2) Copy OK

Track 10

Filename E:\Torrent\Various - Bridget Jones's Diary (Soundtrack)\10 - Rosey - Love.wav

Peak level 88.7 % Extraction speed 2.5 X Track quality 99.9 % Test CRC 67A99958 Copy CRC 67A99958 Accurately ripped (confidence 78) [2F31FD85] (AR v2) Copy OK

Track 11

Filename E:\Torrent\Various - Bridget Jones's Diary (Soundtrack)\11 - Diana Ross & Marvin Gaye - Stop, Look, Listen (To Your Heart).wav

Peak level 99.4 % Extraction speed 2.0 X Track quality 99.8 % Test CRC BEFE0866 Copy CRC 16AF75E4 Cannot be verified as accurate (confidence 79) [CE11291B], AccurateRip returned [AA4A2524] (AR v2) Copy OK

Track 12

Filename E:\Torrent\Various - Bridget Jones's Diary (Soundtrack)\12 - Shelby Lynne - Dreamsome.wav

Peak level 100.0 % Extraction speed 2.1 X Track quality 99.8 % Test CRC 0ABB35B2 Copy CRC F06BDE54 Cannot be verified as accurate (confidence 78) [4321A2EB], AccurateRip returned [A2A7588A] (AR v2) Copy OK

Track 13

Filename E:\Torrent\Various - Bridget Jones's Diary (Soundtrack)\13 - Patrick Doyle - It's Only A Diary.wav

Peak level 99.3 % Extraction speed 2.8 X Track quality 99.9 % Test CRC B09F0B98 Copy CRC B09F0B98 Accurately ripped (confidence 79) [6340EB34] (AR v2) Copy OK

Track 14

Filename E:\Torrent\Various - Bridget Jones's Diary (Soundtrack)\14 - Alisha's Attic - Pretender Got My Heart.wav

Peak level 88.7 % Extraction speed 3.2 X Track quality 100.0 % Test CRC 0ADDE1C9 Copy CRC 0ADDE1C9 Accurately ripped (confidence 78) [3ABB010F] (AR v2) Copy OK

Track 15

Filename E:\Torrent\Various - Bridget Jones's Diary (Soundtrack)\15 - Jamie O'Neal - All By Myself.wav

Peak level 99.5 % Extraction speed 3.4 X Track quality 100.0 % Test CRC EEDC0BB0 Copy CRC EEDC0BB0 Accurately ripped (confidence 76) [273488A4] (AR v2) Copy OK

Track 16

Filename E:\Torrent\Various - Bridget Jones's Diary (Soundtrack)\16 - Aaron Soul - Ring, Ring, Ring.wav

Peak level 79.3 % Extraction speed 3.4 X Track quality 100.0 % Test CRC 9D7C4FC6 Copy CRC 9D7C4FC6 Accurately ripped (confidence 75) [26751EE3] (AR v2) Copy OK

14 track(s) accurately ripped 2 track(s) could not be verified as accurate

Some tracks could not be verified as accurate

No errors occurred

End of status report

---- CUETools DB Plugin V2.1.6

[CTDB TOCID: 2mMDqCiAvvyQ6VRxE4LtsvNeYEQ-] foundSubmit result: insufficient qualityTrack | CTDB Status 1 | (560/576) Accurately ripped 2 | (558/576) Accurately ripped 3 | (560/576) Accurately ripped 4 | (558/576) Accurately ripped 5 | (556/576) Accurately ripped, or (3/576) differs in 104 samples @01:30:63,01:34:28,01:37:41,01:40:67,01:41:31 6 | (558/576) Accurately ripped 7 | (556/576) Accurately ripped 8 | (560/576) Accurately ripped 9 | (559/576) Accurately ripped 10 | (559/576) Accurately ripped 11 | (318/576) Differs in 57 samples @02:43:08-02:43:09,02:43:25,02:50:11, or (3/576) differs in 57 samples @02:43:08-02:43:09,02:43:25,02:50:11, or (208/576) differs in 57 samples @02:43:08-02:43:09,02:43:25,02:50:11 12 | (318/576) Differs in 171 samples @00:00:60,00:01:18,00:01:51,00:01:67,00:02:58,00:03:00,00:03:16,00:03:49,00:03:66, or (3/576) differs in 171 samples @00:00:60,00:01:18,00:01:51,00:01:67,00:02:58,00:03:00,00:03:16,00:03:49,00:03:66, or (208/576) differs in 171 samples @00:00:60,00:01:18,00:01:51,00:01:67,00:02:58,00:03:00,00:03:16,00:03:49,00:03:66 13 | (556/576) Accurately ripped 14 | (554/576) Accurately ripped 15 | (554/576) Accurately ripped 16 | (563/576) Accurately rippedIf you are sure that your rip contains errors, you can use CUETools to repair it.

==== Log checksum FD05B2A05B4D74775CF5A405432B6152B5D9F8A1B924C0066A7B41C26BFA2AB9 ====
REM GENRE SoundtrackREM DATE 2001REM DISCID E30E1210REM COMMENT "ExactAudioCopy v1.3"PERFORMER "Various"TITLE "Bridget Jones's Diary"REM COMPOSER ""FILE "01 - Gabrielle - Out Of Reach.wav" WAVE TRACK 01 AUDIO TITLE "Out Of Reach" PERFORMER "Gabrielle" REM COMPOSER "" INDEX 01 00:00:00FILE "02 - Aretha Franklin - Respect.wav" WAVE TRACK 02 AUDIO TITLE "Respect" PERFORMER "Aretha Franklin" REM COMPOSER "" INDEX 01 00:00:00FILE "03 - Geri Halliwell - It's Raining Men.wav" WAVE TRACK 03 AUDIO TITLE "It's Raining Men" PERFORMER "Geri Halliwell" REM COMPOSER "" INDEX 01 00:00:00FILE "04 - Robbie Williams - Have You Met Miss Jones.wav" WAVE TRACK 04 AUDIO TITLE "Have You Met Miss Jones?" PERFORMER "Robbie Williams" REM COMPOSER "" INDEX 01 00:00:00FILE "05 - Chaka Khan - I'm Every Woman.wav" WAVE TRACK 05 AUDIO TITLE "I'm Every Woman" PERFORMER "Chaka Khan" REM COMPOSER "" INDEX 01 00:00:00FILE "06 - Sheryl Crow - Kiss That Girl.wav" WAVE TRACK 06 AUDIO TITLE "Kiss That Girl" PERFORMER "Sheryl Crow" REM COMPOSER "" INDEX 01 00:00:00FILE "07 - Shelby Lynne - Killin' Kind.wav" WAVE TRACK 07 AUDIO TITLE "Killin' Kind" PERFORMER "Shelby Lynne" REM COMPOSER "" INDEX 01 00:00:00FILE "08 - Dina Carroll - Someone Like You.wav" WAVE TRACK 08 AUDIO TITLE "Someone Like You" PERFORMER "Dina Carroll" REM COMPOSER "" INDEX 01 00:00:00FILE "09 - Robbie Williams - Not Of This Earth.wav" WAVE TRACK 09 AUDIO TITLE "Not Of This Earth" PERFORMER "Robbie Williams" REM COMPOSER "" INDEX 01 00:00:00FILE "10 - Rosey - Love.wav" WAVE TRACK 10 AUDIO TITLE "Love" PERFORMER "Rosey" REM COMPOSER "" INDEX 01 00:00:00FILE "11 - Diana Ross & Marvin Gaye - Stop, Look, Listen (To Your Heart).wav" WAVE TRACK 11 AUDIO TITLE "Stop, Look, Listen (To Your Heart)" PERFORMER "Diana Ross & Marvin Gaye" REM COMPOSER "" INDEX 01 00:00:00FILE "12 - Shelby Lynne - Dreamsome.wav" WAVE TRACK 12 AUDIO TITLE "Dreamsome" PERFORMER "Shelby Lynne" REM COMPOSER "" INDEX 01 00:00:00FILE "13 - Patrick Doyle - It's Only A Diary.wav" WAVE TRACK 13 AUDIO TITLE "It's Only A Diary" PERFORMER "Patrick Doyle" REM COMPOSER "" INDEX 01 00:00:00FILE "14 - Alisha's Attic - Pretender Got My Heart.wav" WAVE TRACK 14 AUDIO TITLE "Pretender Got My Heart" PERFORMER "Alisha's Attic" REM COMPOSER "" INDEX 01 00:00:00FILE "15 - Jamie O'Neal - All By Myself.wav" WAVE TRACK 15 AUDIO TITLE "All By Myself" PERFORMER "Jamie O'Neal" REM COMPOSER "" INDEX 01 00:00:00FILE "16 - Aaron Soul - Ring, Ring, Ring.wav" WAVE TRACK 16 AUDIO TITLE "Ring, Ring, Ring" PERFORMER "Aaron Soul" REM COMPOSER "" INDEX 01 00:00:00


Трекер:  [ 30-Июн-2018 23:06 ]

  

Скачать .torrent

Размер .torrent файла 17 KB


Размер: 387 MB
Хэш (hash) релиза: a050e62df3fd2669f7d5f2388ba9a3fb38217ef6

Еще никто не оставлял запись к записи скачать торрент Дневник Бриджит Джонс Bridget Jones - Schokolade Zum Frühstück . Будь первым!

!Обратная связь