The Grand Tour (73) | Alpha (2018) English CAM-Rip | Thriller

Скачать через торрент УмаНетто - Приключения Кати Очкарёвой UmaNetto Фильм бесплатно в хорошем качестве torrent

Скачивайте на UnionPeer.org фильмы через торрент без регистрации. Новинки кино в хорошем качестве через торрент. На UnionPeer.org можно скачать через торрент фильмы 2014 и 2015 годов. Самые новые фильмы.

Скачать торрент УмаНетто - Приключения Кати Очкарёвой UmaNetto бесплатно через .torrent фильм мультфильм сериал

Статистика раздачи
Размер:  2.94 GB   |    Зарегистрирован:  2 месяца 23 дня   |    .torrent скачан:  31 раз   |   
Раздают:  1  
   
загрузка...
 
Автор Сообщение

Galfimbul

avatar Galfimbul


УмаНетто - Приключения Кати Очкарёвой / UmaNetto

Дата/Год выпуска: 2007
Страна: Россия
Жанр: Пародия
Продолжительность: 00:36:20
Перевод: Отсутствует
Оригинальная аудиодорожка: русский
Режиссер: Александр Колесник

Описание: UmaNetto — мультсериал производства телекомпании Амедиа и студии «Тунгуру», пародия на сериал «Не родись красивой». Само название UmaNetto — это пародия на имя компании Zimaletto, которая фигурировала в сериале.

Что объединяет добрую, но бестолковую Катю Очкареву, придурковатого красавца Андрея Падлыча, нетрадиционного Мурзилко, жуликоватого Шалопаева, культового Медведа и пришельцев с Альдебарана? Конечно же, полное собрание сочинений мультсериала UmaNetto - самая смешная история о жизни в офисе и за его пределами!

Обращение от автора раздачи:
Не помню, чтобы ранее существовала раздача с официальным DVD... Возможно, кому-то она будет нужна спустя 11 лет. <img class="smile" src="//static.t-ru.org/smiles/icon_smile.gif" alt="">
* Интервью с создателями
* Слайдшоу
* Финская полька (DJ Slon)
* Из невошедшего

А ещё там был "Мобильный бонус" - записанные в 3GP-формате серии для скачивания на мобильные телефоны... Но сейчас, я думаю, они утратили свою ценность, так что раздачу оставлю без них. <img class="smile" src="//static.t-ru.org/smiles/icon_smile.gif" alt="">
Сэмпл: http://yadi.sk/i/K_-SUND53Yd3aV

качество: DVD
формат: DVD Video
Видео: MPEG Video, 720x576, 4:3, 4973 kbps, 25.000 fps
Аудио: PCM, 1536 kbps, 48,0 КГц, 2ch
1 - Кастинг
2 - Team Building
3 - Красная шапочка
4 - Трудный день
5 - Новый год
6 - Новое направление бизнеса
7 - Лето в офисе
8 - Волшебная палочка
9 - Якудза
10 - Сафари
Меню

Общее
Полное имя : UmaNetto (2007) - Приключения Кати Очкарёвой\VIDEO_TS\VTS_02_1.VOB
Формат : MPEG-PS
Размер файла : 158 Мбайт
Продолжительность : 3 м. 20 с.
Режим общего битрейта : Переменный
Общий поток : 6613 Кбит/сек

Видео
Идентификатор : 224 (0xE0)
Формат : MPEG Video
Версия формата : Version 2
Профиль формата : [email protected]
Настройки формата : CustomMatrix / BVOP
Параметр BVOP формата : Да
Параметр матрицы формата : Выборочная
Параметр GOP формата : M=3, N=12
Структура изображения : Frame
Продолжительность : 3 м. 20 с.
Вид битрейта : Переменный
Битрейт : 4946 Кбит/сек
Максимальный битрейт : 8000 Кбит/сек
Ширина : 720 пикселей
Высота : 576 пикселей
Соотношение сторон : 4:3
Частота кадров : 25,000 кадров/сек
Стандарт вещания : PAL
Цветовое пространство : YUV
Субдискретизация насыщенности : 4:2:0
Битовая глубина : 8 бит
Тип развёртки : Чересстрочная
Порядок развёртки : Верхнее поле первое
Метод сжатия : С потерями
Бит/(Пиксели*Кадры) : 0.477
Временной код первого кадра : 00:00:00:00
Оригинал временного кода : Group of pictures header
GOP, открыто/закрыто : Закрыто
Размер потока : 118 Мбайт (75%)

Аудио
Идентификатор : 189 (0xBD)-160 (0xA0)
Формат : PCM
Настройки формата : Big / Signed
Режим смешивания : DVD-Video
Продолжительность : 3 м. 20 с.
Вид битрейта : Постоянный
Битрейт : 1536 Кбит/сек
Каналы : 2 канала
Частота : 48,0 КГц
Битовая глубина : 16 бит
Размер потока : 36,6 Мбайт (23%)


Трекер:  [ 30-Июн-2018 17:12 ]

  

Скачать .torrent

Размер .torrent файла 21 KB


Размер: 2.94 GB
Хэш (hash) релиза: baad2f9d8a7ae397a414e62d8ddf6489ea46eb81
Подписка на обновления:

Еще никто не оставлял запись к записи скачать торрент УмаНетто - Приключения Кати Очкарёвой UmaNetto . Будь первым!

!Обратная связь