Rookie Blue (25) | Les Quatre filles du Docteur March - Version 1981 | Hammer Sichl (3)

Скачать через торрент [VIDEO] Чудо-женщина Wonder Woman бесплатно русская версия torrent активатор

Статистика раздачи
Размер:  3.11 GB   |    Зарегистрирован:  2 месяца 21 день   |    .torrent скачан:  21 раз   |   
Раздают:  1  
   
загрузка...
 
Автор Сообщение

Galfimbul

avatar Galfimbul




Чудо-женщина / Wonder Woman

Год выпуска: 2017
Страна: США, Китай, Гонконг, Великобритания, Италия, Канада, Новая Зеландия
Жанр: фантастика, фэнтези, боевик, приключения
Продолжительность: 02:21:16
Перевод №1: русский Профессиональный (полное дублирование) BD EUR
Перевод №2: украинский Профессиональный (полное дублирование) Postmodern
Перевод №3: русский Авторский (одноголосый, закадровый) Гаврилов
Перевод №4: русский Авторский (одноголосый, закадровый) Сербин
Оригинальная дорожка: Есть
Субтитры: русские (форсированные), (полные), украинские (форсированные), английские (полные), (SDH)
Режиссер: Пэтти Дженкинс / Patty Jenkins
В ролях: Галь Гадот, Робин Райт, Дэвид Тьюлис, Конни Нильсен, Крис Пайн, Елена Анайя, Люси Дэвис, Юэн Бремнер, Даутцен Крёз, Дэнни Хьюстон и другие .
Описание: Перед тем как стать Чудо-Женщиной, она была Дианой — принцессой амазонок, обученной быть непобедимой воительницей. И когда на берегах ограждённого от внешнего мира райского острова, который служил ей родиной, терпит крушение американский пилот и рассказывает о серьёзном конфликте, бушующем во внешнем мире, Диана покидает свой дом, чтобы справиться с этой угрозой. И там, сражаясь бок о бок с человеком в войне за мир, Диана обнаружит всю полноту своей власти… и своё истинное предназначение .
Релиз группы

Качество: BDRip / рип с Blu-ray disc 1080p [EUR]
Формат: MP4
Видео кодек: H.264
Аудио кодек: AAC
Видео: 1280x532 AR:2.41 2500 kbps 23.976 fps
Аудио №1: [Russian] 2ch 48 kHz 128 kbps - [Dub] Профессиональный (полное дублирование) BD EUR
Аудио №2: [Ukrainian] 2ch 48 kHz 128 kbps - [Dub] Профессиональный (полное дублирование) Postmodern
Аудио №3: [Russian] 2ch 48 kHz 128 kbps - [VO] Авторский (одноголосый, закадровый) Гаврилов
Аудио №4: [Russian] 2ch 48 kHz 128 kbps - [VO] Авторский (одноголосый, закадровый) Сербин
Аудио №5: [English] 2ch 48 kHz 128 kbps - Original
avs [info]: 1280x532p 1:1 @ 24000/1001 fps (cfr)
x264 [info]: using SAR=1/1
x264 [info]: using cpu capabilities: MMX2 SSE2Fast SSSE3 SSE4.2 AVX FMA3 BMI2 AVX2
x264 [info]: profile High, level 4.1

x264 [info]: frame I:1592 Avg QP:16.73 size: 92293
x264 [info]: frame P:48030 Avg QP:20.50 size: 26591
x264 [info]: frame B:153598 Avg QP:22.58 size: 7974
x264 [info]: consecutive B-frames: 3.3% 4.2% 9.3% 22.7% 19.4% 28.7% 6.9% 1.9% 2.3% 1.4%
x264 [info]: mb I I16..4: 4.9% 79.7% 15.4%
x264 [info]: mb P I16..4: 1.1% 8.3% 1.5% P16..4: 35.5% 39.6% 10.5% 0.0% 0.0% skip: 3.4%
x264 [info]: mb B I16..4: 0.1% 0.8% 0.2% B16..8: 37.5% 17.7% 2.4% direct: 3.7% skip:37.7% L0:43.1% L1:47.7% BI: 9.2%
x264 [info]: 8x8 transform intra:76.3% inter:63.8%
x264 [info]: direct mvs spatial:97.4% temporal:2.6%
x264 [info]: coded y,uvDC,uvAC intra: 80.3% 82.6% 57.2% inter: 20.3% 18.4% 6.5%
x264 [info]: i16 v,h,dc,p: 27% 13% 5% 55%
x264 [info]: i8 v,h,dc,ddl,ddr,vr,hd,vl,hu: 9% 6% 6% 11% 15% 13% 15% 11% 13%
x264 [info]: i4 v,h,dc,ddl,ddr,vr,hd,vl,hu: 28% 5% 6% 8% 12% 11% 12% 9% 10%
x264 [info]: i8c dc,h,v,p: 37% 25% 18% 20%
x264 [info]: Weighted P-Frames: Y:13.5% UV:8.6%
x264 [info]: ref P L0: 49.2% 9.6% 16.7% 6.3% 5.1% 3.7% 3.2% 1.9% 2.1% 1.8% 0.3% 0.0%
x264 [info]: ref B L0: 77.3% 10.2% 4.9% 2.4% 1.9% 1.3% 1.1% 0.5% 0.5%
x264 [info]: ref B L1: 95.1% 4.9%
x264 [info]: kb/s:2500.14

encoded 203220 frames, 9.48 fps, 2500.14 kb/s
GeneralComplete name : K:\Torrents\Wonder Woman.2017.BDRip.x264.1280x.rip by Frost O.S.mp4Format : MPEG-4Format profile : 3GPP Release 6 GeneralCodec ID : 3gg6 (isom/3gg6/mp42)File size : 3.11 GiBDuration : 2 h 21 minOverall bit rate mode : VariableOverall bit rate : 3 151 kb/sEncoded date : UTC 2018-06-30 11:01:53Tagged date : UTC 2018-06-30 11:01:53

VideoID : 1Format : AVCFormat/Info : Advanced Video CodecFormat profile : [email protected] settings : CABAC / 10 Ref FramesFormat settings, CABAC : YesFormat settings, ReFrames : 10 framesCodec ID : avc1Codec ID/Info : Advanced Video CodingDuration : 2 h 21 minBit rate : 2 500 kb/sMaximum bit rate : 10.6 Mb/sWidth : 1 280 pixelsHeight : 532 pixelsDisplay aspect ratio : 2.40:1Frame rate mode : ConstantFrame rate : 23.976 (24000/1001) FPSColor space : YUVChroma subsampling : 4:2:0Bit depth : 8 bitsScan type : ProgressiveBits/(Pixel*Frame) : 0.153Stream size : 2.47 GiB (79%)Writing library : x264 core 152 r2851 ba24899Encoding settings : cabac=1 / ref=10 / deblock=1:-2:-2 / analyse=0x3:0x113 / me=umh / subme=11 / psy=1 / psy_rd=1.00:0.00 / mixed_ref=1 / me_range=32 / chroma_me=1 / trellis=2 / 8x8dct=1 / cqm=0 / deadzone=21,11 / fast_pskip=0 / chroma_qp_offset=-2 / threads=6 / lookahead_threads=1 / sliced_threads=0 / nr=0 / decimate=0 / interlaced=0 / bluray_compat=0 / constrained_intra=0 / bframes=9 / b_pyramid=2 / b_adapt=2 / b_bias=0 / direct=3 / weightb=1 / open_gop=0 / weightp=2 / keyint=250 / keyint_min=23 / scenecut=40 / intra_refresh=0 / rc=2pass / mbtree=0 / bitrate=2500 / ratetol=1.0 / qcomp=0.70 / qpmin=0 / qpmax=69 / qpstep=4 / cplxblur=20.0 / qblur=0.5 / ip_ratio=1.40 / pb_ratio=1.30 / aq=1:0.80Encoded date : UTC 2018-06-27 13:08:41Tagged date : UTC 2018-06-30 11:02:44Color range : LimitedColor primaries : BT.709Transfer characteristics : BT.709Matrix coefficients : BT.709

Audio #1ID : 2Format : AACFormat/Info : Advanced Audio CodecFormat profile : LCCodec ID : mp4a-40-2Duration : 2 h 21 minBit rate mode : VariableBit rate : 128 kb/sMaximum bit rate : 133 kb/sChannel(s) : 2 channelsChannel positions : Front: L RSampling rate : 48.0 kHzFrame rate : 46.875 FPS (1024 SPF)Compression mode : LossyStream size : 129 MiB (4%)Title : Russian / Dub, BD EUREncoded date : UTC 2018-06-30 10:04:38Tagged date : UTC 2018-06-30 11:02:44

Audio #2ID : 3Format : AACFormat/Info : Advanced Audio CodecFormat profile : LCCodec ID : mp4a-40-2Duration : 2 h 21 minBit rate mode : VariableBit rate : 128 kb/sMaximum bit rate : 136 kb/sChannel(s) : 2 channelsChannel positions : Front: L RSampling rate : 48.0 kHzFrame rate : 46.875 FPS (1024 SPF)Compression mode : LossyStream size : 129 MiB (4%)Title : Ukrainian / Dub, PostmodernEncoded date : UTC 2018-06-30 10:21:34Tagged date : UTC 2018-06-30 11:02:44

Audio #3ID : 4Format : AACFormat/Info : Advanced Audio CodecFormat profile : LCCodec ID : mp4a-40-2Duration : 2 h 21 minBit rate mode : VariableBit rate : 128 kb/sMaximum bit rate : 137 kb/sChannel(s) : 2 channelsChannel positions : Front: L RSampling rate : 48.0 kHzFrame rate : 46.875 FPS (1024 SPF)Compression mode : LossyStream size : 129 MiB (4%)Title : Russian / VO, GavrilovEncoded date : UTC 2018-06-30 10:08:51Tagged date : UTC 2018-06-30 11:02:44

Audio #4ID : 5Format : AACFormat/Info : Advanced Audio CodecFormat profile : LCCodec ID : mp4a-40-2Duration : 2 h 21 minBit rate mode : VariableBit rate : 128 kb/sMaximum bit rate : 138 kb/sChannel(s) : 2 channelsChannel positions : Front: L RSampling rate : 48.0 kHzFrame rate : 46.875 FPS (1024 SPF)Compression mode : LossyStream size : 129 MiB (4%)Title : Russian / VO, SerbinEncoded date : UTC 2018-06-30 10:13:03Tagged date : UTC 2018-06-30 11:02:44

Audio #5ID : 6Format : AACFormat/Info : Advanced Audio CodecFormat profile : LCCodec ID : mp4a-40-2Duration : 2 h 21 minBit rate mode : VariableBit rate : 128 kb/sMaximum bit rate : 136 kb/sChannel(s) : 2 channelsChannel positions : Front: L RSampling rate : 48.0 kHzFrame rate : 46.875 FPS (1024 SPF)Compression mode : LossyStream size : 129 MiB (4%)Title : English / OriginalEncoded date : UTC 2018-06-30 10:00:28Tagged date : UTC 2018-06-30 11:02:44

Text #1ID : 7Format : Timed TextCodec ID : tx3gDuration : 2 h 10 minBit rate mode : VariableBit rate : 1 b/sStream size : 1.13 KiB (0%)Title : Russian / ForcedForced : NoEncoded date : UTC 2018-06-30 11:02:44Tagged date : UTC 2018-06-30 11:02:44

Text #2ID : 8Format : Timed TextCodec ID : tx3gDuration : 2 h 13 minBit rate mode : VariableBit rate : 88 b/sStream size : 85.9 KiB (0%)Title : Russian / FullForced : NoEncoded date : UTC 2018-06-30 11:02:44Tagged date : UTC 2018-06-30 11:02:44

Text #3ID : 9Format : Timed TextCodec ID : tx3gDuration : 2 h 10 minBit rate mode : VariableBit rate : 1 b/sStream size : 1.21 KiB (0%)Title : Ukrainian / ForcedForced : NoEncoded date : UTC 2018-06-30 11:02:44Tagged date : UTC 2018-06-30 11:02:44

Text #4ID : 10Format : Timed TextCodec ID : tx3gDuration : 2 h 21 minBit rate mode : VariableBit rate : 54 b/sStream size : 55.8 KiB (0%)Title : English / FullForced : NoEncoded date : UTC 2018-06-30 11:02:44Tagged date : UTC 2018-06-30 11:02:44

Text #5ID : 11Format : Timed TextCodec ID : tx3gDuration : 2 h 21 minBit rate mode : VariableBit rate : 61 b/sStream size : 62.6 KiB (0%)Title : English / SDHForced : NoEncoded date : UTC 2018-06-30 11:02:44Tagged date : UTC 2018-06-30 11:02:44


Трекер:  [ 30-Июн-2018 15:06 ]

  

Скачать .torrent

Размер .torrent файла 16 KB


Размер: 3.11 GB
Хэш (hash) релиза: e8058a6385212b10d4efbc8e37b6af01f5b0f304

Еще никто не оставлял запись к записи скачать торрент [VIDEO] Чудо-женщина Wonder Woman . Будь первым!

!Обратная связь