Man On Fire | Yamiche Alcindor | Chatter (2018)

Скачать через торрент [VIDEO] Чудо-женщина Wonder Woman бесплатно русская версия torrent активатор

Статистика раздачи
Размер:  637 MB   |    Зарегистрирован:  18 дней   |    .torrent скачан:  19 раз   |   
Раздают:  1  
   
загрузка...
 
Автор Сообщение

Galfimbul

avatar Galfimbul




Чудо-женщина / Wonder Woman

Год выпуска: 2017
Страна: США, Китай, Гонконг, Великобритания, Италия, Канада, Новая Зеландия
Жанр: фантастика, фэнтези, боевик, приключения
Продолжительность: 02:21:16
Перевод: русский Профессиональный (полное дублирование) BD EUR
Субтитры: нет
Режиссер: Пэтти Дженкинс / Patty Jenkins
В ролях: Галь Гадот, Робин Райт, Дэвид Тьюлис, Конни Нильсен, Крис Пайн, Елена Анайя, Люси Дэвис, Юэн Бремнер, Даутцен Крёз, Дэнни Хьюстон и другие .
Описание: Перед тем как стать Чудо-Женщиной, она была Дианой — принцессой амазонок, обученной быть непобедимой воительницей. И когда на берегах ограждённого от внешнего мира райского острова, который служил ей родиной, терпит крушение американский пилот и рассказывает о серьёзном конфликте, бушующем во внешнем мире, Диана покидает свой дом, чтобы справиться с этой угрозой. И там, сражаясь бок о бок с человеком в войне за мир, Диана обнаружит всю полноту своей власти… и своё истинное предназначение .
Релиз группы

Качество: BDRip / рип с Blu-ray disc 1080p [EUR]
Формат: MP4
Видео кодек: XviD
Аудио кодек: AAC
Видео: 480x200 AR:2.40 499 kbps 23.976 fps
Аудио: [Russian] 2ch 48 kHz 128 kbps - [Dub] Профессиональный (полное дублирование) BD EUR
GeneralComplete name : K:\Torrents\Wonder Woman.2017.BDRip.XviD.480x.rip by Frost O.S.mp4Format : MPEG-4Format profile : 3GPP Media Release 5Codec ID : 3gp5 (isom/3gp5/3gp4/mp41/mp42)File size : 637 MiBDuration : 2 h 21 minOverall bit rate mode : VariableOverall bit rate : 630 kb/sEncoded date : UTC 2018-06-30 11:30:35Tagged date : UTC 2018-06-30 11:30:35

VideoID : 1Format : MPEG-4 VisualFormat profile : Advanced [email protected] settings : BVOP / Custom MatrixFormat settings, BVOP : YesFormat settings, QPel : NoFormat settings, GMC : No warppointsFormat settings, Matrix : CustomCodec ID : mp4v-20Duration : 2 h 21 minBit rate mode : VariableBit rate : 499 kb/sMaximum bit rate : 3 757 kb/sWidth : 480 pixelsHeight : 200 pixelsDisplay aspect ratio : 2.40:1Frame rate mode : VariableFrame rate : 23.976 (24000/1001) FPSMinimum frame rate : 11.988 FPSMaximum frame rate : 23.976 FPSColor space : YUVChroma subsampling : 4:2:0Bit depth : 8 bitsScan type : ProgressiveCompression mode : LossyBits/(Pixel*Frame) : 0.217Stream size : 504 MiB (79%)Title : [email protected]-DEV-rev248-g39d5978-masterWriting library : XviD 1.2.1 (UTC 2008-12-04)Encoded date : UTC 2018-06-29 21:13:55Tagged date : UTC 2018-06-30 11:30:41

AudioID : 2Format : AACFormat/Info : Advanced Audio CodecFormat profile : LCCodec ID : mp4a-40-2Duration : 2 h 21 minBit rate mode : VariableBit rate : 128 kb/sMaximum bit rate : 133 kb/sChannel(s) : 2 channelsChannel positions : Front: L RSampling rate : 48.0 kHzFrame rate : 46.875 FPS (1024 SPF)Compression mode : LossyStream size : 129 MiB (20%)Title : Russian / Dub, BD EUREncoded date : UTC 2018-06-30 10:04:38Tagged date : UTC 2018-06-30 11:30:41


Трекер:  [ 30-Июн-2018 15:06 ]

  

Скачать .torrent

Размер .torrent файла 13 KB


Размер: 637 MB
Хэш (hash) релиза: 3ccc7d47d52d4d900b1fe5e59fef53625af8a0ce

Еще никто не оставлял запись к записи скачать торрент [VIDEO] Чудо-женщина Wonder Woman . Будь первым!

!Обратная связь