L'électronique Poche pour les Nuls | Великолепный век / Muhtesem Yuzyil | all videos

Скачать через торрент [VIDEO] Мумия The Mummy бесплатно русская версия torrent активатор

Статистика раздачи
Размер:  2.91 GB   |    Зарегистрирован:  18 дней   |    .torrent скачан:  19 раз   |   
Раздают:  1  
   
загрузка...
 
Автор Сообщение

Galfimbul

avatar Galfimbul


Мумия / The Mummy


Год выпуска: 2017
Страна: США
Жанр: фэнтези, боевик, триллер, приключения
Продолжительность: 01:50:05
Перевод №1: русский Профессиональный (полное дублирование) BD EUR
Перевод №2: украинский Профессиональный (полное дублирование) LeDoyen
Перевод №3: русский Авторский (одноголосый, закадровый) В.Дохалов
Перевод №4: русский Авторский (одноголосый, закадровый) Ю.Сербин
Перевод №5: русский Авторский (одноголосый, закадровый) Ю.Живов
Оригинальная дорожка: Есть
Субтитры: русские (форсированные), (полные), украинские (форсированные), английские (форсированные), (полные), (SDH)
Режиссер: Алекс Куртцман / Alex Kurtzman
В ролях: Том Круз, Рассел Кроу, Аннабелль Уоллис, София Бутелла, Джейк Джонсон, Кортни Б. Вэнс, Марван Кензари, Саймон Атертон, Стивен Томпсон, Джеймс Арама и другие .
Описание: Посреди безжалостной пустыни в величественном саркофаге погребена дочь египетского фараона, но настанет день, и она явится в наш мир вернуть себе то, что принадлежит ей по праву. Отныне миром правят боги и монстры .
Релиз группы

Качество: BDRip / рип с Blu-ray disc 1080p [EUR]
Формат: MP4
Видео кодек: H.264
Аудио кодек: AAC
Видео: 1280x532 AR:2.41 3000 kbps 23.976 fps
Аудио №1: [Russian] 2ch 48 kHz 128 kbps - [Dub] Профессиональный (полное дублирование) BD EUR
Аудио №2: [Ukrainian] 2ch 48 kHz 128 kbps - [Dub] Профессиональный (полное дублирование) LeDoyen
Аудио №3: [Russian] 2ch 48 kHz 128 kbps - [VO] Авторский (одноголосый, закадровый) В.Дохалов
Аудио №4: [Russian] 2ch 48 kHz 128 kbps - [VO] Авторский (одноголосый, закадровый) Ю.Сербин
Аудио №5: [Russian] 2ch 48 kHz 128 kbps - [VO] Авторский (одноголосый, закадровый) Ю.Живов
Аудио №6: [English] 2ch 48 kHz 128 kbps - Original
avs [info]: 1280x532p 1:1 @ 24000/1001 fps (cfr)
x264 [info]: using SAR=1/1
x264 [info]: using cpu capabilities: MMX2 SSE2Fast SSSE3 SSE4.2 AVX FMA3 BMI2 AVX2
x264 [info]: profile High, level 4.1

x264 [info]: frame I:1295 Avg QP:16.62 size: 94720
x264 [info]: frame P:35469 Avg QP:19.65 size: 27188
x264 [info]: frame B:121614 Avg QP:21.08 size: 11420
x264 [info]: consecutive B-frames: 2.8% 3.3% 10.2% 14.6% 18.0% 40.8% 5.1% 2.2% 3.0%
x264 [info]: mb I I16..4: 6.6% 80.3% 13.1%
x264 [info]: mb P I16..4: 3.5% 7.6% 1.1% P16..4: 36.0% 38.7% 10.0% 0.0% 0.0% skip: 3.1%
x264 [info]: mb B I16..4: 0.6% 0.9% 0.2% B16..8: 40.7% 20.2% 2.7% direct: 4.9% skip:29.9% L0:49.2% L1:44.9% BI: 6.0%
x264 [info]: 8x8 transform intra:63.6% inter:63.4%
x264 [info]: direct mvs spatial:98.3% temporal:1.7%
x264 [info]: coded y,uvDC,uvAC intra: 67.2% 87.1% 71.3% inter: 27.9% 23.9% 9.8%
x264 [info]: i16 v,h,dc,p: 85% 4% 3% 8%
x264 [info]: i8 v,h,dc,ddl,ddr,vr,hd,vl,hu: 10% 5% 7% 11% 16% 14% 15% 11% 12%
x264 [info]: i4 v,h,dc,ddl,ddr,vr,hd,vl,hu: 25% 5% 7% 8% 13% 11% 12% 9% 10%
x264 [info]: i8c dc,h,v,p: 46% 20% 14% 19%
x264 [info]: Weighted P-Frames: Y:16.5% UV:12.0%
x264 [info]: ref P L0: 42.6% 7.6% 19.1% 7.7% 6.2% 5.0% 4.3% 2.1% 1.9% 1.6% 1.6% 0.4% 0.0%
x264 [info]: ref B L0: 63.7% 14.2% 8.0% 4.1% 2.9% 2.8% 2.2% 1.2% 0.7% 0.3%
x264 [info]: ref B L1: 92.5% 7.5%
x264 [info]: kb/s:2998.39

encoded 158378 frames, 8.34 fps, 2998.39 kb/s
GeneralComplete name : K:\Torrents\The Mummy.2017.BDRip.x264.1280x.rip by Frost O.S.mp4Format : MPEG-4Format profile : 3GPP Release 6 GeneralCodec ID : 3gg6 (isom/3gg6/mp42)File size : 2.91 GiBDuration : 1 h 50 minOverall bit rate mode : VariableOverall bit rate : 3 779 kb/sEncoded date : UTC 2018-06-30 10:29:21Tagged date : UTC 2018-06-30 10:29:21Writing application : Yamb 2.1.0.0

VideoID : 1Format : AVCFormat/Info : Advanced Video CodecFormat profile : [email protected] settings : CABAC / 11 Ref FramesFormat settings, CABAC : YesFormat settings, ReFrames : 11 framesCodec ID : avc1Codec ID/Info : Advanced Video CodingDuration : 1 h 50 minBit rate : 3 000 kb/sMaximum bit rate : 12.5 Mb/sWidth : 1 280 pixelsHeight : 532 pixelsDisplay aspect ratio : 2.40:1Frame rate mode : ConstantFrame rate : 23.976 (24000/1001) FPSColor space : YUVChroma subsampling : 4:2:0Bit depth : 8 bitsScan type : ProgressiveBits/(Pixel*Frame) : 0.184Stream size : 2.31 GiB (79%)Writing library : x264 core 152 r2851 ba24899Encoding settings : cabac=1 / ref=11 / deblock=1:-2:-1 / analyse=0x3:0x113 / me=umh / subme=11 / psy=1 / psy_rd=1.00:0.00 / mixed_ref=1 / me_range=32 / chroma_me=1 / trellis=2 / 8x8dct=1 / cqm=0 / deadzone=21,11 / fast_pskip=0 / chroma_qp_offset=-2 / threads=6 / lookahead_threads=1 / sliced_threads=0 / nr=0 / decimate=0 / interlaced=0 / bluray_compat=0 / constrained_intra=0 / bframes=8 / b_pyramid=2 / b_adapt=2 / b_bias=0 / direct=3 / weightb=1 / open_gop=0 / weightp=2 / keyint=250 / keyint_min=23 / scenecut=40 / intra_refresh=0 / rc=2pass / mbtree=0 / bitrate=3000 / ratetol=1.0 / qcomp=0.70 / qpmin=0 / qpmax=69 / qpstep=4 / cplxblur=20.0 / qblur=0.5 / ip_ratio=1.40 / pb_ratio=1.20 / aq=3:0.90Encoded date : UTC 2018-06-28 13:16:29Tagged date : UTC 2018-06-30 10:30:04Color range : LimitedColor primaries : BT.709Transfer characteristics : BT.709Matrix coefficients : BT.709

Audio #1ID : 2Format : AACFormat/Info : Advanced Audio CodecFormat profile : LCCodec ID : mp4a-40-2Duration : 1 h 50 minBit rate mode : VariableBit rate : 128 kb/sMaximum bit rate : 136 kb/sChannel(s) : 2 channelsChannel positions : Front: L RSampling rate : 48.0 kHzFrame rate : 46.875 FPS (1024 SPF)Compression mode : LossyStream size : 101 MiB (3%)Title : Russian / Dub, BD EUREncoded date : UTC 2018-06-30 09:37:09Tagged date : UTC 2018-06-30 10:30:04

Audio #2ID : 3Format : AACFormat/Info : Advanced Audio CodecFormat profile : LCCodec ID : mp4a-40-2Duration : 1 h 50 minBit rate mode : VariableBit rate : 128 kb/sMaximum bit rate : 136 kb/sChannel(s) : 2 channelsChannel positions : Front: L RSampling rate : 48.0 kHzFrame rate : 46.875 FPS (1024 SPF)Compression mode : LossyStream size : 101 MiB (3%)Title : Ukrainian / Dub, LeDoyenEncoded date : UTC 2018-06-30 09:43:44Tagged date : UTC 2018-06-30 10:30:04

Audio #3ID : 4Format : AACFormat/Info : Advanced Audio CodecFormat profile : LCCodec ID : mp4a-40-2Duration : 1 h 50 minBit rate mode : VariableBit rate : 128 kb/sMaximum bit rate : 135 kb/sChannel(s) : 2 channelsChannel positions : Front: L RSampling rate : 48.0 kHzFrame rate : 46.875 FPS (1024 SPF)Compression mode : LossyStream size : 101 MiB (3%)Title : Russian / VO, DokhalovEncoded date : UTC 2018-06-30 09:46:21Tagged date : UTC 2018-06-30 10:30:04

Audio #4ID : 5Format : AACFormat/Info : Advanced Audio CodecFormat profile : LCCodec ID : mp4a-40-2Duration : 1 h 50 minBit rate mode : VariableBit rate : 128 kb/sMaximum bit rate : 136 kb/sChannel(s) : 2 channelsChannel positions : Front: L RSampling rate : 48.0 kHzFrame rate : 46.875 FPS (1024 SPF)Compression mode : LossyStream size : 101 MiB (3%)Title : Russian / VO, SerbinEncoded date : UTC 2018-06-30 09:49:41Tagged date : UTC 2018-06-30 10:30:04

Audio #5ID : 6Format : AACFormat/Info : Advanced Audio CodecFormat profile : LCCodec ID : mp4a-40-2Duration : 1 h 50 minBit rate mode : VariableBit rate : 128 kb/sMaximum bit rate : 135 kb/sChannel(s) : 2 channelsChannel positions : Front: L RSampling rate : 48.0 kHzFrame rate : 46.875 FPS (1024 SPF)Compression mode : LossyStream size : 101 MiB (3%)Title : Russian / VO, ZhuvovEncoded date : UTC 2018-06-30 09:57:32Tagged date : UTC 2018-06-30 10:30:04

Audio #6ID : 7Format : AACFormat/Info : Advanced Audio CodecFormat profile : LCCodec ID : mp4a-40-2Duration : 1 h 50 minBit rate mode : VariableBit rate : 128 kb/sMaximum bit rate : 135 kb/sChannel(s) : 2 channelsChannel positions : Front: L RSampling rate : 48.0 kHzFrame rate : 46.875 FPS (1024 SPF)Compression mode : LossyStream size : 101 MiB (3%)Title : English / OriginalEncoded date : UTC 2018-06-30 09:33:24Tagged date : UTC 2018-06-30 10:30:04

Text #1ID : 8Format : Timed TextCodec ID : tx3gDuration : 1 h 20 minBit rate mode : VariableBit rate : 2 b/sStream size : 1.44 KiB (0%)Title : Russian / ForcedForced : NoEncoded date : UTC 2018-06-30 10:30:04Tagged date : UTC 2018-06-30 10:30:04

Text #2ID : 9Format : Timed TextCodec ID : tx3gDuration : 1 h 39 minBit rate mode : VariableBit rate : 71 b/sStream size : 52.0 KiB (0%)Title : Russian / FullForced : NoEncoded date : UTC 2018-06-30 10:30:04Tagged date : UTC 2018-06-30 10:30:04

Text #3ID : 10Format : Timed TextCodec ID : tx3gDuration : 1 h 20 minBit rate mode : VariableBit rate : 2 b/sStream size : 1 017 Bytes (0%)Title : Ukrainian / ForcedForced : NoEncoded date : UTC 2018-06-30 10:30:04Tagged date : UTC 2018-06-30 10:30:04

Text #4ID : 11Format : Timed TextCodec ID : tx3gDuration : 1 h 20 minBit rate mode : VariableBit rate : 1 b/sStream size : 595 Bytes (0%)Title : English / ForcedForced : NoEncoded date : UTC 2018-06-30 10:30:04Tagged date : UTC 2018-06-30 10:30:04

Text #5ID : 12Format : Timed TextCodec ID : tx3gDuration : 1 h 39 minBit rate mode : VariableBit rate : 46 b/sStream size : 33.1 KiB (0%)Title : English / FullForced : NoEncoded date : UTC 2018-06-30 10:30:04Tagged date : UTC 2018-06-30 10:30:04

Text #6ID : 13Format : Timed TextCodec ID : tx3gDuration : 1 h 39 minBit rate mode : VariableBit rate : 56 b/sStream size : 40.4 KiB (0%)Title : English / SDHForced : NoEncoded date : UTC 2018-06-30 10:30:04Tagged date : UTC 2018-06-30 10:30:04


Трекер:  [ 30-Июн-2018 15:06 ]

  

Скачать .torrent

Размер .torrent файла 15 KB


Размер: 2.91 GB
Хэш (hash) релиза: 81166cd7026ad24bfc8f68e3292321e63aff40c6

Торренты, похожие на [VIDEO] Мумия The Mummy скачать торрент

Форум Название Автор Размер S L Добавлен
Видео (Фильмы/Клипы) ·%· [VIDEO] Мумия / The Mummy (Алекс Куртцман / Alex Kurtzman) [2017, фэнтези, боевик, триллер, приключения, BDRip] [3GP, 320x] Dub BD EUR Galfimbul 396902260379 MB 0 0 1530360442

15:07

30-Июн-18

Видео (Фильмы/Клипы) ·%· [VIDEO] Мумия / The Mummy (Алекс Куртцман / Alex Kurtzman) [2017, фэнтези, боевик, триллер, приключения, BDRip] [MP4, 960x] Dub (Rus, Ukr), VO Дохалов, VO Сербин, VO Живов, Original, Sub (rus, ukr, eng) Galfimbul 20804977751.94 GB 0 0 1530360391

15:06

30-Июн-18

Видео (Фильмы/Клипы) ·%· [VIDEO] Мумия / The Mummy (Алекс Куртцман / Alex Kurtzman) [2017, фэнтези, боевик, триллер, приключения, BDRip] [MP4, 480x] Dub BD EUR Galfimbul 525617291501 MB 0 0 1530360381

15:06

30-Июн-18

Видео (Фильмы/Клипы) ·· [VIDEO] Мумия: Трилогия / The Mummy: Trilogy (Стивен Соммерс / Stephen Sommers, Роб Коэн / Rob Cohen) [1999 - 2008, боевик, приключения, BDRip] [MP4, 960x] MVO Первый Канал, DVO Universal Channel, VO Кашкин, VO Визгунов, Dub, VO Королёв, VO Гаврилов Galfimbul 58663913855.46 GB 0 0 1459924830

09:40

6-Апр-16

Видео (Фильмы/Клипы) ·· [VIDEO] Мумия: Воскрешение / The Mummy Resurrected (Патрик МакМанус / Patrick McManus) [2014, США, ужасы, HDRip][MP4, 480x] VO Galfimbul 387048651369 MB 0 0 1441920766

00:32

11-Сен-15

Еще никто не оставлял запись к записи скачать торрент [VIDEO] Мумия The Mummy . Будь первым!

!Обратная связь