Побег из тюрьмы / Prison Break | Season 1 Episode 1 Daybreak | Running Man Episode 361

Скачать через торрент [VIDEO] Мумия The Mummy бесплатно русская версия torrent активатор

Статистика раздачи
Размер:  501 MB   |    Зарегистрирован:  18 дней   |    .torrent скачан:  18 раз   |   
Раздают:  1  
   
загрузка...
 
Автор Сообщение

Galfimbul

avatar Galfimbul


Мумия / The Mummy


Год выпуска: 2017
Страна: США
Жанр: фэнтези, боевик, триллер, приключения
Продолжительность: 01:50:05
Перевод: русский Профессиональный (полное дублирование) BD EUR
Субтитры: нет
Режиссер: Алекс Куртцман / Alex Kurtzman
В ролях: Том Круз, Рассел Кроу, Аннабелль Уоллис, София Бутелла, Джейк Джонсон, Кортни Б. Вэнс, Марван Кензари, Саймон Атертон, Стивен Томпсон, Джеймс Арама и другие .
Описание: Посреди безжалостной пустыни в величественном саркофаге погребена дочь египетского фараона, но настанет день, и она явится в наш мир вернуть себе то, что принадлежит ей по праву. Отныне миром правят боги и монстры .
Релиз группы

Качество: BDRip / рип с Blu-ray disc 1080p [EUR]
Формат: MP4
Видео кодек: XviD
Аудио кодек: AAC
Видео: 480x200 AR:2.40 505 kbps 23.976 fps
Аудио: [Russian] 2ch 48 kHz 128 kbps - [Dub] Профессиональный (полное дублирование) BD EUR
GeneralComplete name : K:\Torrents\The Mummy.2017.BDRip.XviD.480x.rip by Frost O.S.mp4Format : MPEG-4Format profile : 3GPP Media Release 5Codec ID : 3gp5 (isom/3gp5/3gp4/mp41/mp42)File size : 501 MiBDuration : 1 h 50 minOverall bit rate mode : VariableOverall bit rate : 637 kb/sEncoded date : UTC 2018-06-30 10:52:16Tagged date : UTC 2018-06-30 10:52:16

VideoID : 1Format : MPEG-4 VisualFormat profile : Advanced [email protected] settings : BVOP / Custom MatrixFormat settings, BVOP : YesFormat settings, QPel : NoFormat settings, GMC : No warppointsFormat settings, Matrix : CustomCodec ID : mp4v-20Duration : 1 h 50 minBit rate mode : VariableBit rate : 505 kb/sMaximum bit rate : 4 318 kb/sWidth : 480 pixelsHeight : 200 pixelsDisplay aspect ratio : 2.40:1Frame rate mode : ConstantFrame rate : 23.976 (24000/1001) FPSColor space : YUVChroma subsampling : 4:2:0Bit depth : 8 bitsScan type : ProgressiveCompression mode : LossyBits/(Pixel*Frame) : 0.219Stream size : 398 MiB (79%)Title : [email protected]-DEV-rev248-g39d5978-masterWriting library : XviD 1.2.1 (UTC 2008-12-04)Encoded date : UTC 2018-06-28 20:32:47Tagged date : UTC 2018-06-30 10:52:20

AudioID : 2Format : AACFormat/Info : Advanced Audio CodecFormat profile : LCCodec ID : mp4a-40-2Duration : 1 h 50 minBit rate mode : VariableBit rate : 128 kb/sMaximum bit rate : 136 kb/sChannel(s) : 2 channelsChannel positions : Front: L RSampling rate : 48.0 kHzFrame rate : 46.875 FPS (1024 SPF)Compression mode : LossyStream size : 101 MiB (20%)Title : Russian / Dub, BD EUREncoded date : UTC 2018-06-30 09:37:09Tagged date : UTC 2018-06-30 10:52:20


Трекер:  [ 30-Июн-2018 15:06 ]

  

Скачать .torrent

Размер .torrent файла 20 KB


Размер: 501 MB
Хэш (hash) релиза: c8ba98818dc6f0b0ad87f9f4eef0944380645f5b

Торренты, похожие на [VIDEO] Мумия The Mummy скачать торрент

Форум Название Автор Размер S L Добавлен
Видео (Фильмы/Клипы) ·%· [VIDEO] Мумия / The Mummy (Алекс Куртцман / Alex Kurtzman) [2017, фэнтези, боевик, триллер, приключения, BDRip] [3GP, 320x] Dub BD EUR Galfimbul 396902260379 MB 0 0 1530360442

15:07

30-Июн-18

Видео (Фильмы/Клипы) ·%· [VIDEO] Мумия / The Mummy (Алекс Куртцман / Alex Kurtzman) [2017, фэнтези, боевик, триллер, приключения, BDRip] [MP4, 1280x] Dub (Rus, Ukr), VO Дохалов, VO Сербин, VO Живов, Original, Sub (rus, ukr, eng) Galfimbul 31205964072.91 GB 0 0 1530360401

15:06

30-Июн-18

Видео (Фильмы/Клипы) ·%· [VIDEO] Мумия / The Mummy (Алекс Куртцман / Alex Kurtzman) [2017, фэнтези, боевик, триллер, приключения, BDRip] [MP4, 960x] Dub (Rus, Ukr), VO Дохалов, VO Сербин, VO Живов, Original, Sub (rus, ukr, eng) Galfimbul 20804977751.94 GB 0 0 1530360391

15:06

30-Июн-18

Видео (Фильмы/Клипы) ·· [VIDEO] Мумия: Трилогия / The Mummy: Trilogy (Стивен Соммерс / Stephen Sommers, Роб Коэн / Rob Cohen) [1999 - 2008, боевик, приключения, BDRip] [MP4, 960x] MVO Первый Канал, DVO Universal Channel, VO Кашкин, VO Визгунов, Dub, VO Королёв, VO Гаврилов Galfimbul 58663913855.46 GB 0 0 1459924830

09:40

6-Апр-16

Видео (Фильмы/Клипы) ·· [VIDEO] Мумия: Воскрешение / The Mummy Resurrected (Патрик МакМанус / Patrick McManus) [2014, США, ужасы, HDRip][MP4, 480x] VO Galfimbul 387048651369 MB 0 0 1441920766

00:32

11-Сен-15

Еще никто не оставлял запись к записи скачать торрент [VIDEO] Мумия The Mummy . Будь первым!

!Обратная связь