1x46 Mi hermano es un clon | The.Big.Bang.Theory.S11E02.Das.Romulaner-Getraenk.German.Dubbed.DL.AmazonHD.x264-TVS | Tiểu Tử Siêu Võ Thuật - Phim Hành Động Võ Thuật Hay - Full HD Thuyết Minh

Скачать через торрент Чужие родные Серии: 1-8 из 8 Фильм бесплатно в хорошем качестве torrent

Скачивайте на UnionPeer.org фильмы через торрент без регистрации. Новинки кино в хорошем качестве через торрент. На UnionPeer.org можно скачать через торрент фильмы 2014 и 2015 годов. Самые новые фильмы.

Скачать торрент Чужие родные Серии: 1-8 из 8 бесплатно через .torrent фильм мультфильм сериал

Статистика раздачи
Размер:  10.13 GB   |    Зарегистрирован:  4 месяца 14 дней   |    .torrent скачан:  73 раза   |   
Раздают:  1  
   
загрузка...
 
Автор Сообщение

Galfimbul

avatar Galfimbul


Чужие родные

Год выпуска: 2017
Производство: кинокомпания "Упс"
Жанр: мелодрама
Продолжительность: ~00:44:00 серия
Субтитры: нет

Режиссёр: Александр Итыгилов

В ролях: Анна Кошмал, Федор Гуринец, Станислав Боклан, Александр Гетманский, Наталья Доля, Родион Галюченко, Лариса Руснак, Анастасия Цымбалару, Сергей Радченко, Олеся Гаевая, Алексей Череватенко, Андрей Титов, Анатолий Ященко, Дарья Лобода, Дарья Рыбак, Максим Мотков

Описание: Главная героиня фильма – молодая балерина Юля. Ее мать – хореограф – готовит свою девочку к отбору на зарубежные гастроли театра. В прошлом мама оставила карьеру именно из-за дочери. Юля ей "должна", она станет маминым триумфом. Провал равносилен смерти. Неудачная попытка самоубийства оборачивается для героини судьбоносной встречей с молодым человеком, который из-за нее опоздал на собственную свадьбу. Эта встреча не только меняет судьбу их обоих, но и приносит неожиданные открытия: о будущем, в котором победы и карьера – не самое главное, и о прошлом, в котором их родители когда-то любили друг друга.

Реклама: Нет.

Кино-театр

Sample

Качество: HDTVRip 720p - Nikolspup
Формат: MKV
Видео кодек: H.264
Аудио кодек: AC3
Видео: MPEG4 AVC Video, H264, 16:9, 1280x720, 25 fps, ~4000 kbps, 0.174 bit/pixel
Аудио: AC3 Dolby Digital, 48 kHz, 2/0 (L,R) ch, 192 kbp
General
Unique ID : 245857680353524572043876941580570644693 (0xB8F6778477AEEEE49697BB68A5FAD0D5)
Complete name : D:\Chuzyje.rodnyje.2017.HDTVRip.(720p).Nikolspup\Chuzyje.rodnyje.(01.seriya.iz.08).2017.HDTVRip.(720p).Nikolspup.mkv
Format : Matroska
Format version : Version 4 / Version 2
File size : 1.20 GiB
Duration : 41 min 5 s
Overall bit rate : 4 194 kb/s
Encoded date : UTC 2018-06-26 14:30:06
Writing application : mkvmerge v7.8.0 ('River Man') 32bit built on Mar 27 2015 16:18:02
Writing library : libebml v1.3.1 + libmatroska v1.4.2

Video
ID : 1
Format : AVC
Format/Info : Advanced Video Codec
Format profile : High@L4.1
Format settings : CABAC / 9 Ref Frames
Format settings, CABAC : Yes
Format settings, ReFrames : 9 frames
Codec ID : V_MPEG4/ISO/AVC
Duration : 41 min 5 s
Bit rate : 4 000 kb/s
Width : 1 280 pixels
Height : 720 pixels
Display aspect ratio : 16:9
Frame rate mode : Constant
Frame rate : 25.000 FPS
Color space : YUV
Chroma subsampling : 4:2:0
Bit depth : 8 bits
Scan type : Progressive
Bits/(Pixel*Frame) : 0.174
Stream size : 1.15 GiB (95%)
Writing library : x264 core 146 r2538 121396c
Encoding settings : cabac=1 / ref=9 / deblock=1:-2:-1 / analyse=0x3:0x133 / me=umh / subme=9 / psy=1 / psy_rd=1.00:0.20 / mixed_ref=1 / me_range=32 / chroma_me=1 / trellis=2 / 8x8dct=1 / cqm=0 / deadzone=21,11 / fast_pskip=1 / chroma_qp_offset=-3 / threads=16 / lookahead_threads=8 / sliced_threads=0 / nr=0 / decimate=1 / interlaced=0 / bluray_compat=0 / constrained_intra=0 / bframes=11 / b_pyramid=2 / b_adapt=2 / b_bias=0 / direct=1 / weightb=1 / open_gop=0 / weightp=2 / keyint=250 / keyint_min=25 / scenecut=40 / intra_refresh=0 / rc=2pass / mbtree=0 / bitrate=4000 / ratetol=1.0 / qcomp=0.60 / qpmin=0 / qpmax=69 / qpstep=4 / cplxblur=20.0 / qblur=0.5 / ip_ratio=1.40 / pb_ratio=1.30 / aq=3:1.00
Default : No
Forced : No
Color range : Limited
Color primaries : BT.709
Transfer characteristics : BT.709
Matrix coefficients : BT.709

Audio
ID : 2
Format : AC-3
Format/Info : Audio Coding 3
Codec ID : A_AC3
Duration : 41 min 5 s
Bit rate mode : Constant
Bit rate : 192 kb/s
Channel(s) : 2 channels
Channel positions : Front: L R
Sampling rate : 48.0 kHz
Frame rate : 31.250 FPS (1536 SPF)
Bit depth : 16 bits
Compression mode : Lossy
Stream size : 56.4 MiB (5%)
Language : Russian
Service kind : Complete Main
Default : Yes
Forced : Yes


Трекер:  [ 29-Июн-2018 20:12 ]

  

Скачать .torrent

Размер .torrent файла 52 KB


Размер: 10.13 GB
Хэш (hash) релиза: 9ba0ba35b1fdf6df3cd4ddbf96914fd6d1459f47
Подписка на обновления:

Торренты, похожие на Чужие родные Серии: 1-8 из 8 скачать торрент

Форум Название Автор Размер S L Добавлен
Российские сериалы ·· Чужие родные / Серии: 1-8 из 8 (Александр Итыгилов) [2017, мелодрама, WEBRip] Galfimbul 48271400964.5 GB 0 0 1520374917

01:21

7-Мар-18

Российские сериалы ·· Чужие родные / Серии: 1-8 из 8 (Александр Итыгилов) [2017, мелодрама, WEBRip-AVC] Galfimbul 47977151984.47 GB 0 0 1520374904

01:21

7-Мар-18

Еще никто не оставлял запись к записи скачать торрент Чужие родные Серии: 1-8 из 8 . Будь первым!

!Обратная связь