not that kinda girl by jojo | [UNCENSORED]Caribbeancom 071718-709 mp4 | Прожекторперисхилтон [эфир от 04.03] (2017) HDTVRip

Скачать через торрент музыку Мария, Мирабела бесплатно без регистрации torrent

Статистика раздачи
Размер:  298 MB   |    Зарегистрирован:  20 дней   |    .torrent скачан:  24 раза   |   
Раздают:  1  
   
загрузка...
 
Автор Сообщение

Galfimbul

avatar Galfimbul




Мария, Мирабела
Оригинальный саундтрек.
На румынском языке.

Жанр: Soundtrack
Композитор: Евгений Дога
Исполнители: Анда Калугэряну, Михай Константинеску, Адриан Штефенеску, Паула Рэдулеску, Александрина Халик.
Ансамбль «5T». Хор и оркестр румынского радио. Дирижёр: Корнел Попеску
Год выхода фильма: 1981
Год выхода CD: 2008
Производитель CD: Россия
Издатель, номер по каталогу: Парк Рекордз, PR-85-1
Аудиокодек: FLAC (*.flac)
Тип рипа: image+.cue
Битрейт аудио: lossless
Время звучания: 0:49:52
Источник: ley-barmaley / lossless-galaxy
Сканирование: full scans (JPG, 450dpi)

Прошло много времени, как впервые появился великолепный фильм «Мария, Мирабела». Маленькие Мария и Мирабела уже стали взрослыми барышнями со своими Мариями и Мирабелами. Много воды утекло из волшебного родника, где сковали льды маленького лягушонка Кваки, ещё больше витков совершили стрелки часов Дедушки Времени, превратилась в красавицу-бабочку Омидэ и только ненасытная жажда осталась, жажда вернуться вновь в ту волшебную сказку, к песням и танцам светлячков, гусеничек и лягушат, жажда вернуться в детство.
Нынешним изданием этой музыки я хочу познакомить новое поколение меломанов с волшебной звуковой сказкой, которая ведёт своё начало от замечательного сказочника Иона Крянге, пройдя через одухотворённые сердца талантливых румынских исполнителей и основываясь на замечательной поэзии Григория Виеру под патронажем Иона Попеску Гопо.
Желаю вам приятного прослушивания и всего доброго.
Евгений Дога. 2008 г.
1. Мария Мирабела
2. Чудесно, расчудесно
3. Фея лесов
4. Хоровод гусениц
5. Улитка
6. Колыбельная
7. Рассказ Кваки
8. Журавль
9. Метаморфоза
10. Оригинал
11. Хоровод лягушат
12. Дедушка Время
13. Мария Мирабела 2
14. Кваки
15. Фаразитина
16. Интродьюкция
Exact Audio Copy V1.0 beta 3 from 29. August 2011

Отчёт EAC об извлечении, выполненном 18. июня 2018, 18:40

Анда Калугэряну, Михай Константинеску. Хор и оркестр румынского радио / Мария Мирабела (PR-85-1)

Дисковод: ASUS DRW-1814BL Adapter: 0 ID: 0

Режим чтения : ДостоверностьИспользование точного потока : ДаОтключение кэша аудио : ДаИспользование указателей C2 : Нет

Коррекция смещения при чтении : 6Способность читать области Lead-in и Lead-out : НетЗаполнение пропущенных сэмплов тишиной : ДаУдаление блоков с тишиной в начале и конце : НетПри вычислениях CRC использовались нулевые сэмплы : ДаИнтерфейс : Встроенный Win32-интерфейс для Win NT/2000

Выходной формат : Внутренние WAV-операцииФормат сэмплов : 44.100 Гц; 16 бит; стерео

TOC извлечённого CD

Трек | Старт | Длительность | Начальный сектор | Конечный сектор --------------------------------------------------------------------- 1 | 0:00.00 | 7:00.68 | 0 | 31567 2 | 7:00.68 | 2:43.00 | 31568 | 43792 3 | 9:43.68 | 2:59.16 | 43793 | 57233 4 | 12:43.09 | 3:32.24 | 57234 | 73157 5 | 16:15.33 | 1:42.57 | 73158 | 80864 6 | 17:58.15 | 4:02.28 | 80865 | 99042 7 | 22:00.43 | 2:41.45 | 99043 | 111162 8 | 24:42.13 | 0:34.42 | 111163 | 113754 9 | 25:16.55 | 3:09.44 | 113755 | 127973 10 | 28:26.24 | 3:16.34 | 127974 | 142707 11 | 31:42.58 | 2:12.09 | 142708 | 152616 12 | 33:54.67 | 3:39.21 | 152617 | 169062 13 | 37:34.13 | 4:38.26 | 169063 | 189938 14 | 42:12.39 | 3:38.07 | 189939 | 206295 15 | 45:50.46 | 2:15.07 | 206296 | 216427 16 | 48:05.53 | 1:46.52 | 216428 | 224429

Характеристики диапазона извлечения и сообщения об ошибках

Выбранный диапазон

Имя файла G:\ley-barmaley\музыкальные сказки на сайте lossless-galaxy.ru\Мария Мирабела (PR-85-1).wav

Пиковый уровень 96.4 % Скорость извлечения 8.1 X Качество диапазона 100.0 % CRC теста 51FBC51C CRC копии 51FBC51C Копирование... OK

Ошибок не произошло

AccurateRip: сводка

Трек 1 отсутствует в базе данныхТрек 2 отсутствует в базе данныхТрек 3 отсутствует в базе данныхТрек 4 отсутствует в базе данныхТрек 5 отсутствует в базе данныхТрек 6 отсутствует в базе данныхТрек 7 отсутствует в базе данныхТрек 8 отсутствует в базе данныхТрек 9 отсутствует в базе данныхТрек 10 отсутствует в базе данныхТрек 11 отсутствует в базе данныхТрек 12 отсутствует в базе данныхТрек 13 отсутствует в базе данныхТрек 14 отсутствует в базе данныхТрек 15 отсутствует в базе данныхТрек 16 отсутствует в базе данных

Ни одного трека нет в базе AccurateRip

Конец отчёта

---- CUETools DB Plugin V2.1.3

[CTDB TOCID: Cmy9gJnqC7L6.gK_8T6e3AW9juY-] disk not present in database, Submit result: Cmy9gJnqC7L6.gK_8T6e3AW9juY- has been uploaded

==== Контрольная сумма отчёта 078BEF76BB9CCD1BCFA92B9345716EABA232BC3ADD3252875C59485CFE7F50F3 ====
foobar2000 1.3.8 / Dynamic Range Meter 1.1.1log date: 2018-06-20 11:54:30

--------------------------------------------------------------------------------Analyzed: Анда Калугэряну, Михай Константинеску. Хор и оркестр румынского радио / Мария, Мирабела (Парк Рекордз, PR-85-1)--------------------------------------------------------------------------------

DR Peak RMS Duration Track--------------------------------------------------------------------------------DR10 -0.67 dB -14.64 dB 7:01 01-Мария, МирабелаDR13 -0.56 dB -17.12 dB 2:43 02-Чудесно, расчудесноDR9 -2.55 dB -15.28 dB 2:59 03-Фея лесовDR12 -1.34 dB -16.31 dB 3:32 04-Хоровод гусеницDR17 -1.65 dB -24.21 dB 1:43 05-УлиткаDR11 -1.46 dB -18.01 dB 4:02 06-КолыбельнаяDR11 -0.31 dB -14.99 dB 2:42 07-Рассказ КвакиDR11 -6.34 dB -21.77 dB 0:35 08-ЖуравльDR10 -2.01 dB -15.20 dB 3:10 09-МетаморфозаDR13 -0.49 dB -18.45 dB 3:16 10-ОригиналDR13 -1.47 dB -16.99 dB 2:12 11-Хоровод лягушатDR10 -1.57 dB -16.02 dB 3:39 12-Дедушка ВремяDR12 -2.90 dB -17.57 dB 4:38 13-Мария, Мирабела 2DR12 -1.88 dB -15.47 dB 3:38 14-КвакиDR12 -2.56 dB -16.14 dB 2:15 15-ФаразитинаDR10 -1.68 dB -14.69 dB 1:47 16-Интродьюкция--------------------------------------------------------------------------------

Number of tracks: 16Official DR value: DR12

Samplerate: 44100 HzChannels: 2Bits per sample: 16Bitrate: 764 kbpsCodec: FLAC================================================================================
-----------------------

DON'T MODIFY THIS FILE

-----------------------

PERFORMER: auCDtect Task Manager, ver. 1.6.0 RC1 build 1.6.0.1Copyright (c) 2008-2010 y-soft. All rights reservedhttp://y-soft.org

ANALYZER: auCDtect: CD records authenticity detector, version 0.8.2Copyright (c) 2004 Oleg Berngardt. All rights reserved.Copyright (c) 2004 Alexander Djourik. All rights reserved.

FILE: Мария Мирабела (PR-85-1).flac Size: 285735796 Hash: 7D72DA2E65C8EC39F6032709EFCD9A84 Accuracy: -m0 Conclusion: CDDA 100% Signature: 5E7590D5388DBE72913EC932DD845E500370A502FILE: Мария Мирабела (PR-85-1).wav Size: 527859404 Hash: 7D72DA2E65C8EC39F6032709EFCD9A84 Accuracy: -m0 Conclusion: CDDA 100% Signature: A3A1951A71A9CC47AA19D59B3E633F0E079F5BB7

<img class="smile" src="//static.t-ru.org/smiles/icon_arrow.gif" alt=""> mp3 ● 320
<img class="smile" src="//static.t-ru.org/smiles/icon_arrow.gif" alt="">

Трекер:  [ 28-Июн-2018 21:06 ]

  

Скачать .torrent

Размер .torrent файла 13 KB


Размер: 298 MB
Хэш (hash) релиза: 06da707ab28e3c068fc9ad4d72de7ea2c7266df4

Еще никто не оставлял запись к записи скачать торрент Мария, Мирабела . Будь первым!

!Обратная связь