Bus Gamer | Eps23 Ergo Proxy - Season 1 | Sorry Love

Скачать через торрент Le Plus Grand Cabaret du Monde Фильм бесплатно в хорошем качестве torrent

Скачивайте на UnionPeer.org фильмы через торрент без регистрации. Новинки кино в хорошем качестве через торрент. На UnionPeer.org можно скачать через торрент фильмы 2014 и 2015 годов. Самые новые фильмы.

Скачать торрент Le Plus Grand Cabaret du Monde бесплатно через .torrent фильм мультфильм сериал

Статистика раздачи
Размер:  5.81 GB   |    Зарегистрирован:  4 месяца 16 дней   |    .torrent скачан:  44 раза   |   
Раздают:  1  
   
загрузка...
 
Автор Сообщение

Galfimbul

avatar Galfimbul


Le Plus Grand Cabaret du Monde - 26.06.2018

Год выпуска: 2018
Страна: Франция
Жанр: шоу, кабаре, цирк
Продолжительность: 01:36:58
Описание:
Последний выпуск (от 26.06.18) телепередачи "Le Plus Grand Cabaret du Monde"
(телеканал France 2) в Full HD качестве. Оставлены только выступления артистов. Перевод не требуется.

Выступают:
01. Los Vivancos - troupe claquettes
02. Zahir Cirko - magie – La partenaire coupée en deux
03. Duo Aleshin - icariens
04. Stupakov - magie colombes
05. Kung Fu Boys - équilibre sur tête
06. Bernard Bilis - magie close-up
07. Igor Krycu - lanceur de couteaux
08. Victor Shishko - magie – La herse
09. Funky Monkeys - trio au mât
10. Vincent C - magie – Le couteau
11. Annette & Yannick - rollers
12. Fills Monkeys - duo batteries
13. Moi et les Autres - la barre russe
14. Equivokee - magie comique
15. Duo Resonance - adagio avec miroir
16. Victor Shishko - magie – Table ventilateur
17. Sirqus Alfon - acrobates sous écran
18. Ocelot - Charivari aérien & banquine
19. Dany Lary - grande illusion – La prédiction de Robert-Houdin
20. Patrick Sebastien

Качество: HDTVRip
Контейнер: mkv
Видео кодек: H.264
Аудио кодек: AC3
Чаптеры: есть
Видео: H.264, 1920x1080, 25.000 fps, 8441 Kbps
Аудио: AC3, 2.0 ch, 48000 Hz, 128 Kbps
GeneralUnique ID : 190115945211479186056677138970501525997 (0x8F06FFCA2F0133A18E7F3B466D7131ED)Complete name : E:\Le Plus Grand Cabaret du Monde 26.06.18.mkvFormat : MatroskaFormat version : Version 4 / Version 2File size : 5.81 GiBDuration : 1 h 36 minOverall bit rate : 8 572 kb/sEncoded date : UTC 2018-06-27 19:35:00Writing application : mkvmerge v8.3.0 ('Over the Horizon') 32bitWriting library : libebml v1.3.1 + libmatroska v1.4.2

VideoID : 1Format : AVCFormat/Info : Advanced Video CodecFormat profile : High@L4Format settings : CABAC / 4 Ref FramesFormat settings, CABAC : YesFormat settings, ReFrames : 4 framesCodec ID : V_MPEG4/ISO/AVCDuration : 1 h 36 minBit rate : 8 441 kb/sWidth : 1 920 pixelsHeight : 1 080 pixelsDisplay aspect ratio : 16:9Frame rate mode : VariableFrame rate : 50.000 FPSOriginal frame rate : 25.000 FPSStandard : ComponentColor space : YUVChroma subsampling : 4:2:0Bit depth : 8 bitsScan type : InterlacedScan type, store method : Separated fieldsScan order : Top Field FirstBits/(Pixel*Frame) : 0.081Stream size : 5.72 GiB (98%)Default : YesForced : NoColor range : LimitedColor primaries : BT.709Transfer characteristics : BT.709Matrix coefficients : BT.709

AudioID : 2Format : AC-3Format/Info : Audio Coding 3Codec ID : A_AC3Duration : 1 h 36 minBit rate mode : ConstantBit rate : 128 kb/sChannel(s) : 2 channelsChannel positions : Front: L RSampling rate : 48.0 kHzFrame rate : 31.250 FPS (1536 SPF)Bit depth : 16 bitsCompression mode : LossyStream size : 88.8 MiB (1%)Language : FrenchService kind : Complete MainDefault : YesForced : No

Menu
Предыдущий выпуск телепередачи: ...5576027

Трекер:  [ 27-Июн-2018 23:42 ]

  

Скачать .torrent

Размер .torrent файла 29 KB


Размер: 5.81 GB
Хэш (hash) релиза: f23ff9f2ac3c67e4c4c7004adddf74b222e2a2d4
Подписка на обновления:

Торренты, похожие на Le Plus Grand Cabaret du Monde скачать торрент

Форум Название Автор Размер S L Добавлен
Развлекательные телепередачи и шоу ·· Новогодний выпуск Le Plus Grand Cabaret du Monde / Le grand cabaret sur son 31 [2017, шоу, кабаре, цирк, HDTVRip] Galfimbul 51805926634.82 GB 0 0 1483374184

19:23

2-Янв-17

Развлекательные телепередачи и шоу ·· Le Plus Grand Cabaret du Monde [03.02.2018, шоу, кабаре, цирк, HDTVRip] Galfimbul 69450158066.47 GB 0 0 1517743085

14:18

4-Фев-18

Развлекательные телепередачи и шоу ·· Le Plus Grand Cabaret du Monde [31.12.2017, шоу, кабаре, цирк, HDTVRip] Galfimbul 54290458095.06 GB 0 0 1514827095

20:18

1-Янв-18

Развлекательные телепередачи и шоу ·· Le Plus Grand Cabaret du Monde [14.10.2017, шоу, кабаре, цирк, HDTVRip] Galfimbul 60483422815.63 GB 0 0 1508073575

16:19

15-Окт-17

Развлекательные телепередачи и шоу ·· Le Plus Grand Cabaret du Monde [16.09.2017, шоу, кабаре, цирк, HDTVRip] Galfimbul 59433733455.54 GB 0 0 1505654376

16:19

17-Сен-17

Развлекательные телепередачи и шоу ·· Le Plus Grand Cabaret du Monde [10.06.2017, шоу, кабаре, цирк, HDTVRip] Galfimbul 65696010226.12 GB 0 0 1497174635

12:50

11-Июн-17

Развлекательные телепередачи и шоу ·· Le Plus Grand Cabaret du Monde [26.06.2015, шоу, кабаре, цирк, HDTVRip] Galfimbul 80313651977.48 GB 0 0 1497116428

20:40

10-Июн-17

Развлекательные телепередачи и шоу ·· Le Plus Grand Cabaret du Monde [31.10.2015, шоу, кабаре, цирк, HDTVRip] Galfimbul 82692814087.7 GB 0 0 1497116405

20:40

10-Июн-17

Развлекательные телепередачи и шоу ·· Le Plus Grand Cabaret du Monde [31.12.2015, шоу, кабаре, цирк, HDTVRip] Galfimbul 1457027535913.57 GB 0 0 1497116381

20:39

10-Июн-17

Развлекательные телепередачи и шоу ·· Le Plus Grand Cabaret du Monde [30.01.2016, шоу, кабаре, цирк, HDTVRip] Galfimbul 70769076526.59 GB 0 0 1497116367

20:39

10-Июн-17

Развлекательные телепередачи и шоу ·· Le Plus Grand Cabaret du Monde [20.02.2016, шоу, кабаре, цирк, HDTVRip] Galfimbul 81003712187.54 GB 0 0 1497116362

20:39

10-Июн-17

Развлекательные телепередачи и шоу ·· Le Plus Grand Cabaret du Monde [05.03.2016, шоу, кабаре, цирк, HDTVRip] Galfimbul 80595294027.51 GB 0 0 1497116357

20:39

10-Июн-17

Развлекательные телепередачи и шоу ·· Le Plus Grand Cabaret du Monde [28.01.2017, шоу, кабаре, цирк, HDTVRip] Galfimbul 63017119265.87 GB 0 0 1497116292

20:38

10-Июн-17

Развлекательные телепередачи и шоу ·· Le Plus Grand Cabaret du Monde [25.02.2017, шоу, кабаре, цирк, HDTVRip] Galfimbul 66457274576.19 GB 0 0 1497116287

20:38

10-Июн-17

Развлекательные телепередачи и шоу ·· Le Plus Grand Cabaret du Monde [08.04.2017, шоу, кабаре, цирк, HDTVRip] Galfimbul 63920167925.95 GB 0 0 1497116280

20:38

10-Июн-17

Развлекательные телепередачи и шоу ·· Le Plus Grand Cabaret du Monde [29.04.2017, шоу, кабаре, цирк, HDTVRip] Galfimbul 65226087446.07 GB 0 0 1497116272

20:37

10-Июн-17

Развлекательные телепередачи и шоу ·· Le Plus Grand Cabaret du Monde [2015-2017, шоу,кабаре,цирк, SATRip,HDTVRip] Galfimbul 2857859481626.62 GB 0 0 1483518120

11:22

4-Янв-17

Развлекательные телепередачи и шоу ·· Le Plus Grand Cabaret du Monde [2015-2016, шоу,кабаре,цирк, SATRip,HDTVRip] Galfimbul 2589491306424.12 GB 0 0 1477322770

18:26

24-Окт-16

Развлекательные телепередачи и шоу ·· Le Plus Grand Cabaret du Monde [22.10.2016, шоу, кабаре, цирк, HDTVRip] Galfimbul 71999593276.71 GB 0 0 1477244664

20:44

23-Окт-16

Еще никто не оставлял запись к записи скачать торрент Le Plus Grand Cabaret du Monde . Будь первым!

!Обратная связь