Un Amour Impossible | The Big Bang Theory 10.Sezon izle | Most Views

Скачать через торрент музыку Камень викингов Магический камень бесплатно без регистрации torrent

Статистика раздачи
Размер:  582 MB   |    Зарегистрирован:  2 месяца 27 дней   |    .torrent скачан:  26 раз   |   
Раздают:  1  
   
загрузка...
 
Автор Сообщение

Galfimbul

avatar Galfimbul


Камень викингов |
Магический камень |
The Runestone
Жанр: Score
Композитор: David Newman
Год выпуска диска: 2010
Год выпуска фильма: 1990
Страна-производитель диска: USA
Издатель (лейбл): Perseverance Records
Номер по каталогу: PRD029
Аудиокодек: FLAC (*.flac)
Тип рипа: tracks+.cue
Битрейт аудио: lossless
Продолжительность: 01:12:17
Источник: собственный рип
Наличие сканов в содержимом раздачи: да, 600 dpi, jpg
Including a 20-page booklet.
Limited edition of 1200 copies.
1. Prologue (01:35)2. Main Title / Discovery (01:32)3. The Runestone Travels (01:53)4. Holy Christ! (00:27)5. The Voices First Appear (01:15)6. The Voices' Second Appearance (00:25)7. Martin Possessed (01:51)8. What Do You Want? (01:14)9. Supernatural Romance (02:54)10. The Keys (02:10)11. No Turning Back - Part 1 (00:29)12. No Turning Back - Part 2 / What The Hell Was That? (00:47)13. Second Killing (03:22)14. Fenrir (00:16)15. Martin Collects Himself (00:42)16. Martin Grabs Maria (01:45)17. Martin Is Crazy (01:42)18. Marla Visits Hagstrom (00:24)19. No Atheists In Foxholes (02:20)20. Marla Escapes Fenrir (03:57)21. Heavy Petting (02:54)22. Bingo! (00:49)23. The Shadow (00:16)24. Tyr (00:37)25. To The Mine (01:06)26. The Party (04:01)27. Slaughters At An Exhibition (01:41)28. Entering Society (01:09)29. Sigvaldson To The Rescue (00:35)30. Nightmare (00:08)31. Jakomin (01:12)32. Fenrir vs. Officer Newman (02:28)33. Battle: Round One (01:38)34. Fenrir Is Held Back (02:56)35. Sigvalson Offers Assistance (01:28)36. Persuasive Eyes (00:30)37. That's Enough (02:44)38. Fenrir Reigns Terror (01:41)39. Jacob Gets The Axe / Sigvaldson & Fenrir Reunited (03:26)40. Jacob Brings The Axe (01:27)41. Final Battle (02:13)42. They Kill Fenrir / Final Scene (03:23)43. End Credits (02:55)
Exact Audio Copy V1.3 from 2. September 2016

EAC extraction logfile from 26. June 2018, 19:48

David Newman / The Runestone

Used drive : ATAPI iHBS312 2 Adapter: 1 ID: 1

Read mode : SecureUtilize accurate stream : YesDefeat audio cache : YesMake use of C2 pointers : No

Read offset correction : 6Overread into Lead-In and Lead-Out : NoFill up missing offset samples with silence : YesDelete leading and trailing silent blocks : NoNull samples used in CRC calculations : YesUsed interface : Native Win32 interface for Win NT & 2000Gap handling : Appended to previous track

Used output format : User Defined EncoderSelected bitrate : 1024 kBit/sQuality : HighAdd ID3 tag : NoCommand line compressor : C:\Program Files\Exact Audio Copy\Flac\flac.exeAdditional command line options : -V -8 -T "Genre=%genre%" -T "Artist=%artist%" -T "Title=%title%" -T "Album=%albumtitle%" -T "Date=%year%" -T "Tracknumber=%tracknr%" -T "Comment=%comment%" %source%

TOC of the extracted CD

Track | Start | Length | Start sector | End sector --------------------------------------------------------- 1 | 0:00.00 | 1:36.05 | 0 | 7204 2 | 1:36.05 | 1:33.17 | 7205 | 14196 3 | 3:09.22 | 1:54.03 | 14197 | 22749 4 | 5:03.25 | 0:27.47 | 22750 | 24821 5 | 5:30.72 | 1:15.49 | 24822 | 30495 6 | 6:46.46 | 0:25.46 | 30496 | 32416 7 | 7:12.17 | 1:51.69 | 32417 | 40810 8 | 9:04.11 | 1:15.04 | 40811 | 46439 9 | 10:19.15 | 2:54.39 | 46440 | 59528 10 | 13:13.54 | 2:10.36 | 59529 | 69314 11 | 15:24.15 | 0:29.58 | 69315 | 71547 12 | 15:53.73 | 0:48.24 | 71548 | 75171 13 | 16:42.22 | 3:23.24 | 75172 | 90420 14 | 20:05.46 | 0:16.59 | 90421 | 91679 15 | 20:22.30 | 0:42.54 | 91680 | 94883 16 | 21:05.09 | 1:46.04 | 94884 | 102837 17 | 22:51.13 | 1:43.05 | 102838 | 110567 18 | 24:34.18 | 0:24.56 | 110568 | 112423 19 | 24:58.74 | 2:21.15 | 112424 | 123013 20 | 27:20.14 | 3:58.25 | 123014 | 140888 21 | 31:18.39 | 2:55.20 | 140889 | 154033 22 | 34:13.59 | 0:49.70 | 154034 | 157778 23 | 35:03.54 | 0:17.01 | 157779 | 159054 24 | 35:20.55 | 0:37.33 | 159055 | 161862 25 | 35:58.13 | 1:07.27 | 161863 | 166914 26 | 37:05.40 | 4:01.51 | 166915 | 185040 27 | 41:07.16 | 1:42.06 | 185041 | 192696 28 | 42:49.22 | 1:10.19 | 192697 | 197965 29 | 43:59.41 | 0:35.46 | 197966 | 200636 30 | 44:35.12 | 0:09.13 | 200637 | 201324 31 | 44:44.25 | 1:12.74 | 201325 | 206798 32 | 45:57.24 | 2:28.63 | 206799 | 217961 33 | 48:26.12 | 1:39.16 | 217962 | 225402 34 | 50:05.28 | 2:56.71 | 225403 | 238673 35 | 53:02.24 | 1:28.45 | 238674 | 245318 36 | 54:30.69 | 0:31.01 | 245319 | 247644 37 | 55:01.70 | 2:45.16 | 247645 | 260035 38 | 57:47.11 | 1:41.49 | 260036 | 267659 39 | 59:28.60 | 3:26.49 | 267660 | 283158 40 | 62:55.34 | 1:27.70 | 283159 | 289753 41 | 64:23.29 | 2:13.62 | 289754 | 299790 42 | 66:37.16 | 3:23.41 | 299791 | 315056 43 | 70:00.57 | 2:55.13 | 315057 | 328194

Track 1

Filename F:\torrent\Runestone_David Newman\score\01. David Newman - Prologue.wav

Pre-gap length 0:00:02.00

Peak level 93.2 % Extraction speed 1.0 X Track quality 100.0 % Test CRC 083314BA Copy CRC 083314BA Accurately ripped (confidence 2) [8020A4D4] (AR v2) Copy OK

Track 2

Filename F:\torrent\Runestone_David Newman\score\02. David Newman - Main Title , Discovery.wav

Pre-gap length 0:00:00.30

Peak level 100.0 % Extraction speed 1.0 X Track quality 100.0 % Test CRC 22657081 Copy CRC 22657081 Accurately ripped (confidence 2) [D82BEFA2] (AR v2) Copy OK

Track 3

Filename F:\torrent\Runestone_David Newman\score\03. David Newman - The Runestone Travels.wav

Pre-gap length 0:00:00.30

Peak level 100.0 % Extraction speed 1.1 X Track quality 100.0 % Test CRC 90D44161 Copy CRC 90D44161 Accurately ripped (confidence 2) [8BCC5F97] (AR v2) Copy OK

Track 4

Filename F:\torrent\Runestone_David Newman\score\04. David Newman - Holy Christ!.wav

Pre-gap length 0:00:00.30

Peak level 56.7 % Extraction speed 0.6 X Track quality 100.0 % Test CRC EE0AFA39 Copy CRC EE0AFA39 Accurately ripped (confidence 2) [9CF4F0C2] (AR v2) Copy OK

Track 5

Filename F:\torrent\Runestone_David Newman\score\05. David Newman - The Voices First Appear.wav

Pre-gap length 0:00:00.30

Peak level 71.7 % Extraction speed 0.9 X Track quality 99.8 % Test CRC F829C523 Copy CRC F829C523 Accurately ripped (confidence 2) [9E68E8D5] (AR v2) Copy OK

Track 6

Filename F:\torrent\Runestone_David Newman\score\06. David Newman - The Voices' Second Appearance.wav

Pre-gap length 0:00:00.30

Peak level 69.1 % Extraction speed 0.6 X Track quality 100.0 % Test CRC E974CA8D Copy CRC E974CA8D Accurately ripped (confidence 2) [4B666673] (AR v2) Copy OK

Track 7

Filename F:\torrent\Runestone_David Newman\score\07. David Newman - Martin Possessed.wav

Pre-gap length 0:00:00.30

Peak level 79.8 % Extraction speed 1.2 X Track quality 100.0 % Test CRC 6AF4C21C Copy CRC 6AF4C21C Accurately ripped (confidence 2) [AEB1E374] (AR v2) Copy OK

Track 8

Filename F:\torrent\Runestone_David Newman\score\08. David Newman - What Do You Want.wav

Pre-gap length 0:00:00.30

Peak level 100.0 % Extraction speed 1.1 X Track quality 100.0 % Test CRC A77E9249 Copy CRC A77E9249 Accurately ripped (confidence 2) [CB56D620] (AR v2) Copy OK

Track 9

Filename F:\torrent\Runestone_David Newman\score\09. David Newman - Supernatural Romance.wav

Pre-gap length 0:00:00.30

Peak level 100.0 % Extraction speed 1.4 X Track quality 100.0 % Test CRC E1927AE0 Copy CRC E1927AE0 Accurately ripped (confidence 2) [A6078D3F] (AR v2) Copy OK

Track 10

Filename F:\torrent\Runestone_David Newman\score\10. David Newman - The Keys.wav

Pre-gap length 0:00:00.30

Peak level 100.0 % Extraction speed 1.3 X Track quality 99.9 % Test CRC C1A7FF0C Copy CRC C1A7FF0C Accurately ripped (confidence 2) [4D6FC7DC] (AR v2) Copy OK

Track 11

Filename F:\torrent\Runestone_David Newman\score\11. David Newman - No Turning Back, Part 1.wav

Pre-gap length 0:00:00.30

Peak level 62.0 % Extraction speed 0.8 X Track quality 100.0 % Test CRC 08661737 Copy CRC 08661737 Accurately ripped (confidence 2) [92A0827E] (AR v2) Copy OK

Track 12

Filename F:\torrent\Runestone_David Newman\score\12. David Newman - No Turning Back, Part 2 , What the Hell Was That.wav

Pre-gap length 0:00:00.30

Peak level 100.0 % Extraction speed 1.0 X Track quality 100.0 % Test CRC 5E527A4A Copy CRC 5E527A4A Accurately ripped (confidence 2) [3DC3F7A4] (AR v2) Copy OK

Track 13

Filename F:\torrent\Runestone_David Newman\score\13. David Newman - Second Killing.wav

Pre-gap length 0:00:00.30

Peak level 75.6 % Extraction speed 1.7 X Track quality 100.0 % Test CRC 13F798CA Copy CRC 13F798CA Accurately ripped (confidence 2) [C08003E4] (AR v2) Copy OK

Track 14

Filename F:\torrent\Runestone_David Newman\score\14. David Newman - Fenrir.wav

Pre-gap length 0:00:00.30

Peak level 85.9 % Extraction speed 0.6 X Track quality 100.0 % Test CRC 1DD1F722 Copy CRC 1DD1F722 Accurately ripped (confidence 2) [943CB896] (AR v2) Copy OK

Track 15

Filename F:\torrent\Runestone_David Newman\score\15. David Newman - Martin Collects Himself.wav

Pre-gap length 0:00:00.30

Peak level 72.2 % Extraction speed 1.0 X Track quality 100.0 % Test CRC 7A56C8FA Copy CRC 7A56C8FA Accurately ripped (confidence 2) [72B73D54] (AR v2) Copy OK

Track 16

Filename F:\torrent\Runestone_David Newman\score\16. David Newman - Martin Grabs Maria.wav

Pre-gap length 0:00:00.30

Peak level 100.0 % Extraction speed 1.5 X Track quality 100.0 % Test CRC 6486CC06 Copy CRC 6486CC06 Accurately ripped (confidence 2) [A81BB9D5] (AR v2) Copy OK

Track 17

Filename F:\torrent\Runestone_David Newman\score\17. David Newman - Martin Is Crazy.wav

Pre-gap length 0:00:00.30

Peak level 64.9 % Extraction speed 1.5 X Track quality 100.0 % Test CRC D381C986 Copy CRC D381C986 Accurately ripped (confidence 2) [37505D1A] (AR v2) Copy OK

Track 18

Filename F:\torrent\Runestone_David Newman\score\18. David Newman - Marla Visits Hagstrom.wav

Pre-gap length 0:00:00.30

Peak level 68.5 % Extraction speed 0.8 X Track quality 100.0 % Test CRC C40FC077 Copy CRC C40FC077 Accurately ripped (confidence 2) [E47F5E58] (AR v2) Copy OK

Track 19

Filename F:\torrent\Runestone_David Newman\score\19. David Newman - No Atheists in Foxholes.wav

Pre-gap length 0:00:00.30

Peak level 86.6 % Extraction speed 1.7 X Track quality 100.0 % Test CRC 1A3A274D Copy CRC 1A3A274D Accurately ripped (confidence 2) [005BD56A] (AR v2) Copy OK

Track 20

Filename F:\torrent\Runestone_David Newman\score\20. David Newman - Marla Escapes Fenrir.wav

Pre-gap length 0:00:00.30

Peak level 100.0 % Extraction speed 1.9 X Track quality 100.0 % Test CRC EEA811D2 Copy CRC EEA811D2 Accurately ripped (confidence 2) [019E6B2A] (AR v2) Copy OK

Track 21

Filename F:\torrent\Runestone_David Newman\score\21. David Newman - Heavy Petting.wav

Pre-gap length 0:00:00.30

Peak level 100.0 % Extraction speed 1.6 X Track quality 99.9 % Test CRC 95E9BD9A Copy CRC 95E9BD9A Accurately ripped (confidence 2) [F658EDBB] (AR v2) Copy OK

Track 22

Filename F:\torrent\Runestone_David Newman\score\22. David Newman - Bingo!.wav

Pre-gap length 0:00:00.30

Peak level 80.8 % Extraction speed 1.3 X Track quality 100.0 % Test CRC 0D3D2397 Copy CRC 0D3D2397 Accurately ripped (confidence 2) [7A96FE35] (AR v2) Copy OK

Track 23

Filename F:\torrent\Runestone_David Newman\score\23. David Newman - The Shadow.wav

Pre-gap length 0:00:00.30

Peak level 37.3 % Extraction speed 0.7 X Track quality 100.0 % Test CRC B3081E0B Copy CRC B3081E0B Accurately ripped (confidence 2) [3714441B] (AR v2) Copy OK

Track 24

Filename F:\torrent\Runestone_David Newman\score\24. David Newman - Tyr.wav

Pre-gap length 0:00:00.30

Peak level 67.9 % Extraction speed 1.2 X Track quality 100.0 % Test CRC 64B7B04B Copy CRC 64B7B04B Accurately ripped (confidence 2) [2D03B828] (AR v2) Copy OK

Track 25

Filename F:\torrent\Runestone_David Newman\score\25. David Newman - To the Mine.wav

Pre-gap length 0:00:00.30

Peak level 100.0 % Extraction speed 1.1 X Track quality 99.8 % Test CRC 4E431FF2 Copy CRC 4E431FF2 Accurately ripped (confidence 2) [410D5927] (AR v2) Copy OK

Track 26

Filename F:\torrent\Runestone_David Newman\score\26. David Newman - The Party.wav

Pre-gap length 0:00:00.30

Peak level 86.3 % Extraction speed 1.9 X Track quality 99.9 % Test CRC D94035A8 Copy CRC D94035A8 Accurately ripped (confidence 2) [F30AB487] (AR v2) Copy OK

Track 27

Filename F:\torrent\Runestone_David Newman\score\27. David Newman - Slaughters at an Exhibition.wav

Pre-gap length 0:00:00.30

Peak level 100.0 % Extraction speed 1.8 X Track quality 100.0 % Test CRC D08CB27D Copy CRC D08CB27D Accurately ripped (confidence 2) [C6B401A5] (AR v2) Copy OK

Track 28

Filename F:\torrent\Runestone_David Newman\score\28. David Newman - Entering Society.wav

Pre-gap length 0:00:00.30

Peak level 100.0 % Extraction speed 1.7 X Track quality 100.0 % Test CRC 1A57D2A4 Copy CRC 1A57D2A4 Accurately ripped (confidence 2) [057E5F8A] (AR v2) Copy OK

Track 29

Filename F:\torrent\Runestone_David Newman\score\29. David Newman - Sigvaldson to the Rescue.wav

Pre-gap length 0:00:00.30

Peak level 100.0 % Extraction speed 1.2 X Track quality 100.0 % Test CRC FDE15AEA Copy CRC FDE15AEA Accurately ripped (confidence 2) [C8A9D912] (AR v2) Copy OK

Track 30

Filename F:\torrent\Runestone_David Newman\score\30. David Newman - Nightmare.wav

Pre-gap length 0:00:00.30

Peak level 53.7 % Extraction speed 0.5 X Track quality 100.0 % Test CRC 418D18EC Copy CRC 418D18EC Accurately ripped (confidence 2) [E4DAA37C] (AR v2) Copy OK

Track 31

Filename F:\torrent\Runestone_David Newman\score\31. David Newman - Jakomin.wav

Pre-gap length 0:00:00.30

Peak level 57.1 % Extraction speed 1.7 X Track quality 100.0 % Test CRC D218DF44 Copy CRC D218DF44 Accurately ripped (confidence 2) [282019FD] (AR v2) Copy OK

Track 32

Filename F:\torrent\Runestone_David Newman\score\32. David Newman - Fenrir vs. Officer Newman.wav

Pre-gap length 0:00:00.30

Peak level 100.0 % Extraction speed 2.1 X Track quality 100.0 % Test CRC A67C231F Copy CRC A67C231F Accurately ripped (confidence 2) [2D57DE51] (AR v2) Copy OK

Track 33

Filename F:\torrent\Runestone_David Newman\score\33. David Newman - Battle- Round One.wav

Pre-gap length 0:00:00.30

Peak level 100.0 % Extraction speed 2.0 X Track quality 100.0 % Test CRC 24570772 Copy CRC 24570772 Accurately ripped (confidence 2) [55882511] (AR v2) Copy OK

Track 34

Filename F:\torrent\Runestone_David Newman\score\34. David Newman - Fenrir Is Held Back.wav

Pre-gap length 0:00:00.30

Peak level 100.0 % Extraction speed 1.8 X Track quality 99.9 % Test CRC 9F79C7CF Copy CRC 9F79C7CF Accurately ripped (confidence 2) [4CB6EBFB] (AR v2) Copy OK

Track 35

Filename F:\torrent\Runestone_David Newman\score\35. David Newman - Sigvalson Offers Assistance.wav

Pre-gap length 0:00:00.30

Peak level 72.0 % Extraction speed 1.4 X Track quality 99.8 % Test CRC 2A522988 Copy CRC 2A522988 Accurately ripped (confidence 2) [0F74FFA7] (AR v2) Copy OK

Track 36

Filename F:\torrent\Runestone_David Newman\score\36. David Newman - Persuasive Eyes.wav

Pre-gap length 0:00:00.30

Peak level 67.5 % Extraction speed 1.2 X Track quality 100.0 % Test CRC BD64F459 Copy CRC BD64F459 Accurately ripped (confidence 2) [5B767B78] (AR v2) Copy OK

Track 37

Filename F:\torrent\Runestone_David Newman\score\37. David Newman - That's Enough.wav

Pre-gap length 0:00:00.30

Peak level 99.9 % Extraction speed 2.3 X Track quality 100.0 % Test CRC 061CE724 Copy CRC 061CE724 Accurately ripped (confidence 2) [D0CD6849] (AR v2) Copy OK

Track 38

Filename F:\torrent\Runestone_David Newman\score\38. David Newman - Fenrir Reigns Terror.wav

Pre-gap length 0:00:00.30

Peak level 78.5 % Extraction speed 2.0 X Track quality 100.0 % Test CRC D0190740 Copy CRC D0190740 Accurately ripped (confidence 2) [A923F7E9] (AR v2) Copy OK

Track 39

Filename F:\torrent\Runestone_David Newman\score\39. David Newman - Jacob Gets the Axe , Sigvaldson & Fenrir Reunited.wav

Pre-gap length 0:00:00.30

Peak level 88.1 % Extraction speed 2.4 X Track quality 100.0 % Test CRC D65F28B2 Copy CRC D65F28B2 Accurately ripped (confidence 2) [5781A37D] (AR v2) Copy OK

Track 40

Filename F:\torrent\Runestone_David Newman\score\40. David Newman - Jacob Brings the Axe.wav

Pre-gap length 0:00:00.30

Peak level 100.0 % Extraction speed 1.4 X Track quality 99.8 % Test CRC C4E4D97D Copy CRC C4E4D97D Accurately ripped (confidence 2) [2BCBF2BF] (AR v2) Copy OK

Track 41

Filename F:\torrent\Runestone_David Newman\score\41. David Newman - Final Battle.wav

Pre-gap length 0:00:00.30

Peak level 100.0 % Extraction speed 2.3 X Track quality 100.0 % Test CRC 82E07F83 Copy CRC 82E07F83 Accurately ripped (confidence 2) [425E2341] (AR v2) Copy OK

Track 42

Filename F:\torrent\Runestone_David Newman\score\42. David Newman - They Kill Fenrir , Final Scene.wav

Pre-gap length 0:00:00.30

Peak level 100.0 % Extraction speed 2.5 X Track quality 100.0 % Test CRC A12AEA38 Copy CRC A12AEA38 Accurately ripped (confidence 2) [7A3C5D74] (AR v2) Copy OK

Track 43

Filename F:\torrent\Runestone_David Newman\score\43. David Newman - End Credits.wav

Pre-gap length 0:00:00.30

Peak level 100.0 % Extraction speed 2.5 X Track quality 100.0 % Test CRC 5CDFAA96 Copy CRC 5CDFAA96 Accurately ripped (confidence 2) [BD544583] (AR v2) Copy OK

All tracks accurately ripped

No errors occurred

End of status report

---- CUETools DB Plugin V2.1.6

[CTDB TOCID: slB4gqf45nMmM73os_nYtOC4MmI-] foundSubmit result: slB4gqf45nMmM73os_nYtOC4MmI- has been confirmedTrack | CTDB Status 1 | (7/7) Accurately ripped 2 | (7/7) Accurately ripped 3 | (7/7) Accurately ripped 4 | (7/7) Accurately ripped 5 | (7/7) Accurately ripped 6 | (7/7) Accurately ripped 7 | (7/7) Accurately ripped 8 | (7/7) Accurately ripped 9 | (7/7) Accurately ripped 10 | (7/7) Accurately ripped 11 | (7/7) Accurately ripped 12 | (7/7) Accurately ripped 13 | (7/7) Accurately ripped 14 | (7/7) Accurately ripped 15 | (7/7) Accurately ripped 16 | (7/7) Accurately ripped 17 | (7/7) Accurately ripped 18 | (7/7) Accurately ripped 19 | (7/7) Accurately ripped 20 | (7/7) Accurately ripped 21 | (7/7) Accurately ripped 22 | (7/7) Accurately ripped 23 | (7/7) Accurately ripped 24 | (7/7) Accurately ripped 25 | (7/7) Accurately ripped 26 | (7/7) Accurately ripped 27 | (7/7) Accurately ripped 28 | (7/7) Accurately ripped 29 | (7/7) Accurately ripped 30 | (7/7) Accurately ripped 31 | (7/7) Accurately ripped 32 | (7/7) Accurately ripped 33 | (7/7) Accurately ripped 34 | (7/7) Accurately ripped 35 | (7/7) Accurately ripped 36 | (7/7) Accurately ripped 37 | (7/7) Accurately ripped 38 | (7/7) Accurately ripped 39 | (7/7) Accurately ripped 40 | (7/7) Accurately ripped 41 | (7/7) Accurately ripped 42 | (7/7) Accurately ripped 43 | (7/7) Accurately ripped

==== Log checksum 0943E181DDCC09EDD93F1740930BF60B25A2FB25A2EB896CB09AD0475C8B8501 ====
REM GENRE SoundtrackREM DATE 2010REM DISCID 6611172BREM COMMENT "ExactAudioCopy v1.3"PERFORMER "David Newman"TITLE "The Runestone"REM COMPOSER ""FILE "01. David Newman - Prologue.wav" WAVE TRACK 01 AUDIO TITLE "Prologue" PERFORMER "David Newman" REM COMPOSER "" INDEX 01 00:00:00 TRACK 02 AUDIO TITLE "Main Title / Discovery" PERFORMER "David Newman" REM COMPOSER "" INDEX 00 01:35:50FILE "02. David Newman - Main Title , Discovery.wav" WAVE INDEX 01 00:00:00 TRACK 03 AUDIO TITLE "The Runestone Travels" PERFORMER "David Newman" REM COMPOSER "" INDEX 00 01:32:62FILE "03. David Newman - The Runestone Travels.wav" WAVE INDEX 01 00:00:00 TRACK 04 AUDIO TITLE "Holy Christ!" PERFORMER "David Newman" REM COMPOSER "" INDEX 00 01:53:48FILE "04. David Newman - Holy Christ!.wav" WAVE INDEX 01 00:00:00 TRACK 05 AUDIO TITLE "The Voices First Appear" PERFORMER "David Newman" REM COMPOSER "" INDEX 00 00:27:17FILE "05. David Newman - The Voices First Appear.wav" WAVE INDEX 01 00:00:00 TRACK 06 AUDIO TITLE "The Voices' Second Appearance" PERFORMER "David Newman" REM COMPOSER "" INDEX 00 01:15:19FILE "06. David Newman - The Voices' Second Appearance.wav" WAVE INDEX 01 00:00:00 TRACK 07 AUDIO TITLE "Martin Possessed" PERFORMER "David Newman" REM COMPOSER "" INDEX 00 00:25:16FILE "07. David Newman - Martin Possessed.wav" WAVE INDEX 01 00:00:00 TRACK 08 AUDIO TITLE "What Do You Want?" PERFORMER "David Newman" REM COMPOSER "" INDEX 00 01:51:39FILE "08. David Newman - What Do You Want.wav" WAVE INDEX 01 00:00:00 TRACK 09 AUDIO TITLE "Supernatural Romance" PERFORMER "David Newman" REM COMPOSER "" INDEX 00 01:14:49FILE "09. David Newman - Supernatural Romance.wav" WAVE INDEX 01 00:00:00 TRACK 10 AUDIO TITLE "The Keys" PERFORMER "David Newman" REM COMPOSER "" INDEX 00 02:54:09FILE "10. David Newman - The Keys.wav" WAVE INDEX 01 00:00:00 TRACK 11 AUDIO TITLE "No Turning Back, Part 1" PERFORMER "David Newman" REM COMPOSER "" INDEX 00 02:10:06FILE "11. David Newman - No Turning Back, Part 1.wav" WAVE INDEX 01 00:00:00 TRACK 12 AUDIO TITLE "No Turning Back, Part 2 / What the Hell Was That?" PERFORMER "David Newman" REM COMPOSER "" INDEX 00 00:29:28FILE "12. David Newman - No Turning Back, Part 2 , What the Hell Was That.wav" WAVE INDEX 01 00:00:00 TRACK 13 AUDIO TITLE "Second Killing" PERFORMER "David Newman" REM COMPOSER "" INDEX 00 00:47:69FILE "13. David Newman - Second Killing.wav" WAVE INDEX 01 00:00:00 TRACK 14 AUDIO TITLE "Fenrir" PERFORMER "David Newman" REM COMPOSER "" INDEX 00 03:22:69FILE "14. David Newman - Fenrir.wav" WAVE INDEX 01 00:00:00 TRACK 15 AUDIO TITLE "Martin Collects Himself" PERFORMER "David Newman" REM COMPOSER "" INDEX 00 00:16:29FILE "15. David Newman - Martin Collects Himself.wav" WAVE INDEX 01 00:00:00 TRACK 16 AUDIO TITLE "Martin Grabs Maria" PERFORMER "David Newman" REM COMPOSER "" INDEX 00 00:42:24FILE "16. David Newman - Martin Grabs Maria.wav" WAVE INDEX 01 00:00:00 TRACK 17 AUDIO TITLE "Martin Is Crazy" PERFORMER "David Newman" REM COMPOSER "" INDEX 00 01:45:49FILE "17. David Newman - Martin Is Crazy.wav" WAVE INDEX 01 00:00:00 TRACK 18 AUDIO TITLE "Marla Visits Hagstrom" PERFORMER "David Newman" REM COMPOSER "" INDEX 00 01:42:50FILE "18. David Newman - Marla Visits Hagstrom.wav" WAVE INDEX 01 00:00:00 TRACK 19 AUDIO TITLE "No Atheists in Foxholes" PERFORMER "David Newman" REM COMPOSER "" INDEX 00 00:24:26FILE "19. David Newman - No Atheists in Foxholes.wav" WAVE INDEX 01 00:00:00 TRACK 20 AUDIO TITLE "Marla Escapes Fenrir" PERFORMER "David Newman" REM COMPOSER "" INDEX 00 02:20:60FILE "20. David Newman - Marla Escapes Fenrir.wav" WAVE INDEX 01 00:00:00 TRACK 21 AUDIO TITLE "Heavy Petting" PERFORMER "David Newman" REM COMPOSER "" INDEX 00 03:57:70FILE "21. David Newman - Heavy Petting.wav" WAVE INDEX 01 00:00:00 TRACK 22 AUDIO TITLE "Bingo!" PERFORMER "David Newman" REM COMPOSER "" INDEX 00 02:54:65FILE "22. David Newman - Bingo!.wav" WAVE INDEX 01 00:00:00 TRACK 23 AUDIO TITLE "The Shadow" PERFORMER "David Newman" REM COMPOSER "" INDEX 00 00:49:40FILE "23. David Newman - The Shadow.wav" WAVE INDEX 01 00:00:00 TRACK 24 AUDIO TITLE "Tyr" PERFORMER "David Newman" REM COMPOSER "" INDEX 00 00:16:46FILE "24. David Newman - Tyr.wav" WAVE INDEX 01 00:00:00 TRACK 25 AUDIO TITLE "To the Mine" PERFORMER "David Newman" REM COMPOSER "" INDEX 00 00:37:03FILE "25. David Newman - To the Mine.wav" WAVE INDEX 01 00:00:00 TRACK 26 AUDIO TITLE "The Party" PERFORMER "David Newman" REM COMPOSER "" INDEX 00 01:06:72FILE "26. David Newman - The Party.wav" WAVE INDEX 01 00:00:00 TRACK 27 AUDIO TITLE "Slaughters at an Exhibition" PERFORMER "David Newman" REM COMPOSER "" INDEX 00 04:01:21FILE "27. David Newman - Slaughters at an Exhibition.wav" WAVE INDEX 01 00:00:00 TRACK 28 AUDIO TITLE "Entering Society" PERFORMER "David Newman" REM COMPOSER "" INDEX 00 01:41:51FILE "28. David Newman - Entering Society.wav" WAVE INDEX 01 00:00:00 TRACK 29 AUDIO TITLE "Sigvaldson to the Rescue" PERFORMER "David Newman" REM COMPOSER "" INDEX 00 01:09:64FILE "29. David Newman - Sigvaldson to the Rescue.wav" WAVE INDEX 01 00:00:00 TRACK 30 AUDIO TITLE "Nightmare" PERFORMER "David Newman" REM COMPOSER "" INDEX 00 00:35:16FILE "30. David Newman - Nightmare.wav" WAVE INDEX 01 00:00:00 TRACK 31 AUDIO TITLE "Jakomin" PERFORMER "David Newman" REM COMPOSER "" INDEX 00 00:08:58FILE "31. David Newman - Jakomin.wav" WAVE INDEX 01 00:00:00 TRACK 32 AUDIO TITLE "Fenrir vs. Officer Newman" PERFORMER "David Newman" REM COMPOSER "" INDEX 00 01:12:44FILE "32. David Newman - Fenrir vs. Officer Newman.wav" WAVE INDEX 01 00:00:00 TRACK 33 AUDIO TITLE "Battle: Round One" PERFORMER "David Newman" REM COMPOSER "" INDEX 00 02:28:33FILE "33. David Newman - Battle- Round One.wav" WAVE INDEX 01 00:00:00 TRACK 34 AUDIO TITLE "Fenrir Is Held Back" PERFORMER "David Newman" REM COMPOSER "" INDEX 00 01:38:61FILE "34. David Newman - Fenrir Is Held Back.wav" WAVE INDEX 01 00:00:00 TRACK 35 AUDIO TITLE "Sigvalson Offers Assistance" PERFORMER "David Newman" REM COMPOSER "" INDEX 00 02:56:41FILE "35. David Newman - Sigvalson Offers Assistance.wav" WAVE INDEX 01 00:00:00 TRACK 36 AUDIO TITLE "Persuasive Eyes" PERFORMER "David Newman" REM COMPOSER "" INDEX 00 01:28:15FILE "36. David Newman - Persuasive Eyes.wav" WAVE INDEX 01 00:00:00 TRACK 37 AUDIO TITLE "That's Enough" PERFORMER "David Newman" REM COMPOSER "" INDEX 00 00:30:46FILE "37. David Newman - That's Enough.wav" WAVE INDEX 01 00:00:00 TRACK 38 AUDIO TITLE "Fenrir Reigns Terror" PERFORMER "David Newman" REM COMPOSER "" INDEX 00 02:44:61FILE "38. David Newman - Fenrir Reigns Terror.wav" WAVE INDEX 01 00:00:00 TRACK 39 AUDIO TITLE "Jacob Gets the Axe / Sigvaldson & Fenrir Reunited" PERFORMER "David Newman" REM COMPOSER "" INDEX 00 01:41:19FILE "39. David Newman - Jacob Gets the Axe , Sigvaldson & Fenrir Reunited.wav" WAVE INDEX 01 00:00:00 TRACK 40 AUDIO TITLE "Jacob Brings the Axe" PERFORMER "David Newman" REM COMPOSER "" INDEX 00 03:26:19FILE "40. David Newman - Jacob Brings the Axe.wav" WAVE INDEX 01 00:00:00 TRACK 41 AUDIO TITLE "Final Battle" PERFORMER "David Newman" REM COMPOSER "" INDEX 00 01:27:40FILE "41. David Newman - Final Battle.wav" WAVE INDEX 01 00:00:00 TRACK 42 AUDIO TITLE "They Kill Fenrir / Final Scene" PERFORMER "David Newman" REM COMPOSER "" INDEX 00 02:13:32FILE "42. David Newman - They Kill Fenrir , Final Scene.wav" WAVE INDEX 01 00:00:00 TRACK 43 AUDIO TITLE "End Credits" PERFORMER "David Newman" REM COMPOSER "" INDEX 00 03:23:11FILE "43. David Newman - End Credits.wav" WAVE INDEX 01 00:00:00


Трекер:  [ 27-Июн-2018 13:36 ]

  

Скачать .torrent

Размер .torrent файла 16 KB


Размер: 582 MB
Хэш (hash) релиза: 45382a2dcf893231229c42d4fafd33196f6cb8e2

Еще никто не оставлял запись к записи скачать торрент Камень викингов Магический камень . Будь первым!

!Обратная связь