Handjob (26) | 27.08.1819:39 Uhr SolidThinking Inspire v2016.1.5559 x64 0 / 0127 Hits VID P2P DDL 0 Kommentare | Stevin Espinoza

Скачать через торрент [VIDEO] Чёрная Пантера Black Panther бесплатно русская версия torrent активатор

Статистика раздачи
Размер:  2.62 GB   |    Зарегистрирован:  2 месяца 25 дней   |    .torrent скачан:  51 раз   |   
Раздают:  1  
   
загрузка...
 
Автор Сообщение

Galfimbul

avatar Galfimbul


Чёрная Пантера / Black Panther


Год выпуска: 2018
Страна: США
Жанр: фантастика, боевик, приключения
Продолжительность: 02:14:33
Перевод №1: русский Профессиональный (полное дублирование) BD EUR
Перевод №2: украинский Профессиональный (полное дублирование) LeDoyen
Оригинальная дорожка: Есть
Субтитры: русские (форсированные), (полные), (полные (Focs)), (SDH), английские (форсированные), (полные), (SDH), (SDH-Цветные)
Режиссер: Райан Куглер / Ryan Coogler
В ролях: Чедвик Боузман, Майкл Б. Джордан, Лупита Нионго, Данай Джекесай Гурира, Мартин Фриман, Дэниэл Калуя, Летишиа Райт, Уинстон Дьюк, Стерлинг К. Браун, Анджела Бассетт и другие .
Описание: С первого взгляда можно решить, что Ваканда — обычная территория дикой Африки, но это не так. Здесь, в недрах пустынных земель, скрываются залежи уникального металла, способного поглощать вибрацию. Многие пытались добраться до него, разоряя всё на своём пути и принося смерть аборигенам, но каждый раз таинственный дух саванны — Чёрная Пантера — вставал на защиту угнетённых.
Спустя много лет беда снова приходит в Ваканду, и в этот раз враг заручился поддержкой современных технологий. Когда шансов почти не остаётся, Т`Чалла, молодой принц Ваканды, узнаёт, что именно ему предстоит возродить легенду и продолжить вечную борьбу, надев маску Чёрной Пантеры .

Релиз группы

Качество: BDRip / рип с Blu-ray disc 1080p [EUR] (Кинозал)
Формат: MP4
Видео кодек: H.264
Аудио кодек: AAC
Видео: 1280x536 AR:2.39 2400 kbps 23.976 fps
Аудио №1: [Russian] 2ch 48 kHz 128 kbps - [Dub] Профессиональный (полное дублирование) BD EUR
Аудио №2: [Ukrainian] 2ch 48 kHz 128 kbps - [Dub] Профессиональный (полное дублирование) LeDoyen
Аудио №3: [English] 2ch 48 kHz 128 kbps - Original
avs [info]: 1280x536p 1:1 @ 24000/1001 fps (cfr)
x264 [info]: using SAR=1/1
x264 [info]: using cpu capabilities: MMX2 SSE2Fast SSSE3 SSE4.2 AVX FMA3 BMI2 AVX2
x264 [info]: profile High, level 4.1

x264 [info]: frame I:1885 Avg QP:15.96 size: 86478
x264 [info]: frame P:54065 Avg QP:19.96 size: 23352
x264 [info]: frame B:137612 Avg QP:21.98 size: 7238
x264 [info]: consecutive B-frames: 5.9% 8.0% 14.3% 22.9% 17.3% 24.7% 4.0% 1.3% 1.5%
x264 [info]: mb I I16..4: 5.3% 76.0% 18.7%
x264 [info]: mb P I16..4: 1.2% 10.3% 1.6% P16..4: 35.5% 35.1% 9.0% 0.0% 0.0% skip: 7.2%
x264 [info]: mb B I16..4: 0.1% 1.4% 0.2% B16..8: 34.9% 16.7% 2.3% direct: 3.2% skip:41.3% L0:42.2% L1:46.0% BI:11.8%
x264 [info]: 8x8 transform intra:78.8% inter:64.6%
x264 [info]: direct mvs spatial:94.2% temporal:5.8%
x264 [info]: coded y,uvDC,uvAC intra: 82.8% 76.7% 46.4% inter: 17.1% 14.2% 5.8%
x264 [info]: i16 v,h,dc,p: 12% 12% 4% 73%
x264 [info]: i8 v,h,dc,ddl,ddr,vr,hd,vl,hu: 10% 8% 5% 9% 14% 13% 15% 12% 15%
x264 [info]: i4 v,h,dc,ddl,ddr,vr,hd,vl,hu: 12% 8% 4% 8% 15% 13% 15% 10% 13%
x264 [info]: i8c dc,h,v,p: 33% 28% 19% 20%
x264 [info]: Weighted P-Frames: Y:9.9% UV:6.5%
x264 [info]: ref P L0: 54.4% 10.8% 16.2% 5.5% 4.1% 3.0% 2.6% 1.6% 1.5% 0.3% 0.1%
x264 [info]: ref B L0: 79.9% 9.8% 4.4% 2.1% 1.5% 1.2% 0.8% 0.2%
x264 [info]: ref B L1: 95.7% 4.3%
x264 [info]: kb/s:2399.68

encoded 193562 frames, 10.41 fps, 2399.69 kb/s
GeneralComplete name : K:\Torrents\Black Panther.2018.BDRip.x264.1280x.rip by Frost O.S.mp4Format : MPEG-4Format profile : 3GPP Release 6 GeneralCodec ID : 3gg6 (isom/3gg6/mp42)File size : 2.62 GiBDuration : 2 h 14 minOverall bit rate mode : VariableOverall bit rate : 2 792 kb/sEncoded date : UTC 2018-06-26 16:12:05Tagged date : UTC 2018-06-26 16:12:05Writing application : Yamb 2.1.0.0

VideoID : 1Format : AVCFormat/Info : Advanced Video CodecFormat profile : [email protected] settings : CABAC / 9 Ref FramesFormat settings, CABAC : YesFormat settings, ReFrames : 9 framesCodec ID : avc1Codec ID/Info : Advanced Video CodingDuration : 2 h 14 minBit rate : 2 400 kb/sMaximum bit rate : 12.8 Mb/sWidth : 1 280 pixelsHeight : 536 pixelsDisplay aspect ratio : 2.40:1Frame rate mode : ConstantFrame rate : 23.976 (24000/1001) FPSColor space : YUVChroma subsampling : 4:2:0Bit depth : 8 bitsScan type : ProgressiveBits/(Pixel*Frame) : 0.146Stream size : 2.26 GiB (86%)Writing library : x264 core 152 r2851 ba24899Encoding settings : cabac=1 / ref=9 / deblock=1:-2:-1 / analyse=0x3:0x113 / me=umh / subme=11 / psy=1 / psy_rd=0.95:0.00 / mixed_ref=1 / me_range=32 / chroma_me=1 / trellis=2 / 8x8dct=1 / cqm=0 / deadzone=21,11 / fast_pskip=0 / chroma_qp_offset=-2 / threads=6 / lookahead_threads=1 / sliced_threads=0 / nr=0 / decimate=0 / interlaced=0 / bluray_compat=0 / constrained_intra=0 / bframes=8 / b_pyramid=2 / b_adapt=2 / b_bias=0 / direct=3 / weightb=1 / open_gop=0 / weightp=2 / keyint=250 / keyint_min=23 / scenecut=40 / intra_refresh=0 / rc=2pass / mbtree=0 / bitrate=2400 / ratetol=1.0 / qcomp=0.70 / qpmin=0 / qpmax=69 / qpstep=4 / cplxblur=20.0 / qblur=0.5 / ip_ratio=1.40 / pb_ratio=1.30 / aq=1:0.80Encoded date : UTC 2018-06-26 08:28:43Tagged date : UTC 2018-06-26 16:12:47Color range : LimitedColor primaries : BT.709Transfer characteristics : BT.709Matrix coefficients : BT.709

Audio #1ID : 2Format : AACFormat/Info : Advanced Audio CodecFormat profile : LCCodec ID : mp4a-40-2Duration : 2 h 14 minBit rate mode : VariableBit rate : 128 kb/sMaximum bit rate : 137 kb/sChannel(s) : 2 channelsChannel positions : Front: L RSampling rate : 48.0 kHzFrame rate : 46.875 FPS (1024 SPF)Compression mode : LossyStream size : 123 MiB (5%)Title : Russian / Dub, BD EUREncoded date : UTC 2018-06-26 15:59:32Tagged date : UTC 2018-06-26 16:12:47

Audio #2ID : 3Format : AACFormat/Info : Advanced Audio CodecFormat profile : LCCodec ID : mp4a-40-2Duration : 2 h 14 minBit rate mode : VariableBit rate : 128 kb/sMaximum bit rate : 138 kb/sChannel(s) : 2 channelsChannel positions : Front: L RSampling rate : 48.0 kHzFrame rate : 46.875 FPS (1024 SPF)Compression mode : LossyStream size : 123 MiB (5%)Title : Ukrainian / Dub, LeDoyenEncoded date : UTC 2018-06-26 15:56:13Tagged date : UTC 2018-06-26 16:12:47

Audio #3ID : 4Format : AACFormat/Info : Advanced Audio CodecFormat profile : LCCodec ID : mp4a-40-2Duration : 2 h 14 minBit rate mode : VariableBit rate : 128 kb/sMaximum bit rate : 137 kb/sChannel(s) : 2 channelsChannel positions : Front: L RSampling rate : 48.0 kHzFrame rate : 46.875 FPS (1024 SPF)Compression mode : LossyStream size : 123 MiB (5%)Title : English / OriginalEncoded date : UTC 2018-06-26 16:03:51Tagged date : UTC 2018-06-26 16:12:47

Text #1ID : 5Format : Timed TextCodec ID : tx3gDuration : 2 h 14 minBit rate mode : VariableBit rate : 2 b/sStream size : 2.44 KiB (0%)Title : Russian / ForcedForced : NoEncoded date : UTC 2018-06-26 16:12:46Tagged date : UTC 2018-06-26 16:12:47

Text #2ID : 6Format : Timed TextCodec ID : tx3gDuration : 2 h 14 minBit rate mode : VariableBit rate : 72 b/sStream size : 70.9 KiB (0%)Title : Russian / FullForced : NoEncoded date : UTC 2018-06-26 16:12:46Tagged date : UTC 2018-06-26 16:12:47

Text #3ID : 7Format : Timed TextCodec ID : tx3gDuration : 2 h 14 minBit rate mode : VariableBit rate : 76 b/sStream size : 74.3 KiB (0%)Title : Russian / Full FocsForced : NoEncoded date : UTC 2018-06-26 16:12:46Tagged date : UTC 2018-06-26 16:12:47

Text #4ID : 8Format : Timed TextCodec ID : tx3gDuration : 2 h 14 minBit rate mode : VariableBit rate : 87 b/sStream size : 85.8 KiB (0%)Title : Russian / SDHForced : NoEncoded date : UTC 2018-06-26 16:12:46Tagged date : UTC 2018-06-26 16:12:47

Text #5ID : 9Format : Timed TextCodec ID : tx3gDuration : 2 h 13 minBit rate mode : VariableBit rate : 1 b/sStream size : 1.41 KiB (0%)Title : English / ForcedForced : NoEncoded date : UTC 2018-06-26 16:12:47Tagged date : UTC 2018-06-26 16:12:47

Text #6ID : 10Format : Timed TextCodec ID : tx3gDuration : 2 h 14 minBit rate mode : VariableBit rate : 50 b/sStream size : 49.2 KiB (0%)Title : English / FullForced : NoEncoded date : UTC 2018-06-26 16:12:47Tagged date : UTC 2018-06-26 16:12:47

Text #7ID : 11Format : Timed TextCodec ID : tx3gDuration : 2 h 14 minBit rate mode : VariableBit rate : 58 b/sStream size : 56.8 KiB (0%)Title : English / SDHForced : NoEncoded date : UTC 2018-06-26 16:12:47Tagged date : UTC 2018-06-26 16:12:47

Text #8ID : 12Format : Timed TextCodec ID : tx3gDuration : 2 h 14 minBit rate mode : VariableBit rate : 68 b/sStream size : 67.1 KiB (0%)Title : English / SDH ColoredForced : NoEncoded date : UTC 2018-06-26 16:12:47Tagged date : UTC 2018-06-26 16:12:47


Трекер:  [ 26-Июн-2018 20:06 ]

  

Скачать .torrent

Размер .torrent файла 13 KB


Размер: 2.62 GB
Хэш (hash) релиза: f0041e0305efdeff4094446feda1b22640d2c13f

Еще никто не оставлял запись к записи скачать торрент [VIDEO] Чёрная Пантера Black Panther . Будь первым!

!Обратная связь