Adobe Creative Cloud‎ | Captain America: Winter Soldier, Vol. 1 | [Pantyhosed4U.com] Red - Closing the deal... / 04.07.2018 [2018 г., Solo, Pantyhose, High Heels, 1080p, HDRip]

Скачать через торрент [VIDEO] Чёрная Пантера Black Panther бесплатно русская версия torrent активатор

Статистика раздачи
Размер:  1.78 GB   |    Зарегистрирован:  21 день   |    .torrent скачан:  41 раз   |   
Раздают:  1  
   
загрузка...
 
Автор Сообщение

Galfimbul

avatar Galfimbul


Чёрная Пантера / Black Panther


Год выпуска: 2018
Страна: США
Жанр: фантастика, боевик, приключения
Продолжительность: 02:14:33
Перевод №1: русский Профессиональный (полное дублирование) BD EUR
Перевод №2: украинский Профессиональный (полное дублирование) LeDoyen
Оригинальная дорожка: Есть
Субтитры: русские (форсированные), (полные), (полные (Focs)), (SDH), английские (форсированные), (полные), (SDH), (SDH-Цветные)
Режиссер: Райан Куглер / Ryan Coogler
В ролях: Чедвик Боузман, Майкл Б. Джордан, Лупита Нионго, Данай Джекесай Гурира, Мартин Фриман, Дэниэл Калуя, Летишиа Райт, Уинстон Дьюк, Стерлинг К. Браун, Анджела Бассетт и другие .
Описание: С первого взгляда можно решить, что Ваканда — обычная территория дикой Африки, но это не так. Здесь, в недрах пустынных земель, скрываются залежи уникального металла, способного поглощать вибрацию. Многие пытались добраться до него, разоряя всё на своём пути и принося смерть аборигенам, но каждый раз таинственный дух саванны — Чёрная Пантера — вставал на защиту угнетённых.
Спустя много лет беда снова приходит в Ваканду, и в этот раз враг заручился поддержкой современных технологий. Когда шансов почти не остаётся, Т`Чалла, молодой принц Ваканды, узнаёт, что именно ему предстоит возродить легенду и продолжить вечную борьбу, надев маску Чёрной Пантеры .

Релиз группы

Качество: BDRip / рип с Blu-ray disc 1080p [EUR] (Кинозал)
Формат: MP4
Видео кодек: H.264
Аудио кодек: AAC
Видео: 960x402 AR:2.39 1500 kbps 23.976 fps
Аудио №1: [Russian] 2ch 48 kHz 128 kbps - [Dub] Профессиональный (полное дублирование) BD EUR
Аудио №2: [Ukrainian] 2ch 48 kHz 128 kbps - [Dub] Профессиональный (полное дублирование) LeDoyen
Аудио №3: [English] 2ch 48 kHz 128 kbps - Original
avs [info]: 960x402p 1:1 @ 24000/1001 fps (cfr)
x264 [info]: using SAR=1/1
x264 [info]: using cpu capabilities: MMX2 SSE2Fast SSSE3 SSE4.2 AVX FMA3 BMI2 AVX2
x264 [info]: profile High, level 4.1

x264 [info]: frame I:1901 Avg QP:16.32 size: 53675
x264 [info]: frame P:51660 Avg QP:20.48 size: 14932
x264 [info]: frame B:140001 Avg QP:22.37 size: 4573
x264 [info]: consecutive B-frames: 5.2% 5.2% 14.8% 26.8% 17.2% 22.4% 4.5% 1.6% 1.3% 1.1%
x264 [info]: mb I I16..4: 4.6% 70.5% 24.9%
x264 [info]: mb P I16..4: 1.2% 10.2% 2.5% P16..4: 34.1% 35.1% 10.3% 0.0% 0.0% skip: 6.5%
x264 [info]: mb B I16..4: 0.2% 1.5% 0.5% B16..8: 33.5% 16.9% 2.5% direct: 3.3% skip:41.7% L0:41.4% L1:44.7% BI:14.0%
x264 [info]: 8x8 transform intra:72.2% inter:61.0%
x264 [info]: direct mvs spatial:95.4% temporal:4.6%
x264 [info]: coded y,uvDC,uvAC intra: 78.8% 76.8% 47.1% inter: 17.0% 13.2% 5.7%
x264 [info]: i16 v,h,dc,p: 21% 13% 4% 63%
x264 [info]: i8 v,h,dc,ddl,ddr,vr,hd,vl,hu: 14% 8% 5% 9% 12% 12% 14% 12% 14%
x264 [info]: i4 v,h,dc,ddl,ddr,vr,hd,vl,hu: 31% 7% 5% 7% 11% 10% 11% 8% 10%
x264 [info]: i8c dc,h,v,p: 31% 30% 22% 17%
x264 [info]: Weighted P-Frames: Y:10.7% UV:6.5%
x264 [info]: ref P L0: 54.9% 11.8% 14.2% 6.6% 4.2% 3.3% 2.6% 1.9% 0.4% 0.1%
x264 [info]: ref B L0: 80.0% 9.1% 4.5% 2.8% 2.2% 1.0% 0.4%
x264 [info]: ref B L1: 95.6% 4.4%
x264 [info]: kb/s:1499.97

encoded 193562 frames, 17.65 fps, 1499.97 kb/s
GeneralComplete name : K:\Torrents\Black Panther.2018.BDRip.x264.960x.rip by Frost O.S.mp4Format : MPEG-4Format profile : 3GPP Release 6 GeneralCodec ID : 3gg6 (isom/3gg6/mp42)File size : 1.78 GiBDuration : 2 h 14 minOverall bit rate mode : VariableOverall bit rate : 1 892 kb/sEncoded date : UTC 2018-06-26 16:23:30Tagged date : UTC 2018-06-26 16:23:30

VideoID : 1Format : AVCFormat/Info : Advanced Video CodecFormat profile : [email protected] settings : CABAC / 8 Ref FramesFormat settings, CABAC : YesFormat settings, ReFrames : 8 framesCodec ID : avc1Codec ID/Info : Advanced Video CodingDuration : 2 h 14 minBit rate : 1 500 kb/sMaximum bit rate : 7 379 kb/sWidth : 960 pixelsHeight : 402 pixelsDisplay aspect ratio : 2.40:1Frame rate mode : ConstantFrame rate : 23.976 (24000/1001) FPSColor space : YUVChroma subsampling : 4:2:0Bit depth : 8 bitsScan type : ProgressiveBits/(Pixel*Frame) : 0.162Stream size : 1.41 GiB (79%)Writing library : x264 core 152 r2851 ba24899Encoding settings : cabac=1 / ref=8 / deblock=1:-2:-1 / analyse=0x3:0x113 / me=umh / subme=11 / psy=1 / psy_rd=1.00:0.00 / mixed_ref=1 / me_range=32 / chroma_me=1 / trellis=2 / 8x8dct=1 / cqm=0 / deadzone=21,11 / fast_pskip=0 / chroma_qp_offset=-2 / threads=6 / lookahead_threads=1 / sliced_threads=0 / nr=0 / decimate=0 / interlaced=0 / bluray_compat=0 / constrained_intra=0 / bframes=9 / b_pyramid=2 / b_adapt=2 / b_bias=0 / direct=3 / weightb=1 / open_gop=0 / weightp=2 / keyint=250 / keyint_min=23 / scenecut=40 / intra_refresh=0 / rc=2pass / mbtree=0 / bitrate=1500 / ratetol=1.0 / qcomp=0.70 / qpmin=0 / qpmax=69 / qpstep=4 / cplxblur=20.0 / qblur=0.5 / ip_ratio=1.40 / pb_ratio=1.30 / aq=1:0.80Encoded date : UTC 2018-06-26 13:06:27Tagged date : UTC 2018-06-26 16:23:58Color range : LimitedColor primaries : BT.709Transfer characteristics : BT.709Matrix coefficients : BT.709

Audio #1ID : 2Format : AACFormat/Info : Advanced Audio CodecFormat profile : LCCodec ID : mp4a-40-2Duration : 2 h 14 minBit rate mode : VariableBit rate : 128 kb/sMaximum bit rate : 137 kb/sChannel(s) : 2 channelsChannel positions : Front: L RSampling rate : 48.0 kHzFrame rate : 46.875 FPS (1024 SPF)Compression mode : LossyStream size : 123 MiB (7%)Title : Russian / Dub, BD EUREncoded date : UTC 2018-06-26 15:59:32Tagged date : UTC 2018-06-26 16:23:58

Audio #2ID : 3Format : AACFormat/Info : Advanced Audio CodecFormat profile : LCCodec ID : mp4a-40-2Duration : 2 h 14 minBit rate mode : VariableBit rate : 128 kb/sMaximum bit rate : 138 kb/sChannel(s) : 2 channelsChannel positions : Front: L RSampling rate : 48.0 kHzFrame rate : 46.875 FPS (1024 SPF)Compression mode : LossyStream size : 123 MiB (7%)Title : Ukrainian / Dub, LeDoyenEncoded date : UTC 2018-06-26 15:56:13Tagged date : UTC 2018-06-26 16:23:58

Audio #3ID : 4Format : AACFormat/Info : Advanced Audio CodecFormat profile : LCCodec ID : mp4a-40-2Duration : 2 h 14 minBit rate mode : VariableBit rate : 128 kb/sMaximum bit rate : 137 kb/sChannel(s) : 2 channelsChannel positions : Front: L RSampling rate : 48.0 kHzFrame rate : 46.875 FPS (1024 SPF)Compression mode : LossyStream size : 123 MiB (7%)Title : English / OriginalEncoded date : UTC 2018-06-26 16:03:51Tagged date : UTC 2018-06-26 16:23:58

Text #1ID : 5Format : Timed TextCodec ID : tx3gDuration : 2 h 14 minBit rate mode : VariableBit rate : 2 b/sStream size : 2.44 KiB (0%)Title : Russian / ForcedForced : NoEncoded date : UTC 2018-06-26 16:23:57Tagged date : UTC 2018-06-26 16:23:58

Text #2ID : 6Format : Timed TextCodec ID : tx3gDuration : 2 h 14 minBit rate mode : VariableBit rate : 72 b/sStream size : 70.9 KiB (0%)Title : Russian / FullForced : NoEncoded date : UTC 2018-06-26 16:23:57Tagged date : UTC 2018-06-26 16:23:58

Text #3ID : 7Format : Timed TextCodec ID : tx3gDuration : 2 h 14 minBit rate mode : VariableBit rate : 76 b/sStream size : 74.3 KiB (0%)Title : Russian / Full FocsForced : NoEncoded date : UTC 2018-06-26 16:23:57Tagged date : UTC 2018-06-26 16:23:58

Text #4ID : 8Format : Timed TextCodec ID : tx3gDuration : 2 h 14 minBit rate mode : VariableBit rate : 87 b/sStream size : 85.8 KiB (0%)Title : Russian / SDHForced : NoEncoded date : UTC 2018-06-26 16:23:58Tagged date : UTC 2018-06-26 16:23:58

Text #5ID : 9Format : Timed TextCodec ID : tx3gDuration : 2 h 13 minBit rate mode : VariableBit rate : 1 b/sStream size : 1.41 KiB (0%)Title : English / ForcedForced : NoEncoded date : UTC 2018-06-26 16:23:58Tagged date : UTC 2018-06-26 16:23:58

Text #6ID : 10Format : Timed TextCodec ID : tx3gDuration : 2 h 14 minBit rate mode : VariableBit rate : 50 b/sStream size : 49.2 KiB (0%)Title : English / FullForced : NoEncoded date : UTC 2018-06-26 16:23:58Tagged date : UTC 2018-06-26 16:23:58

Text #7ID : 11Format : Timed TextCodec ID : tx3gDuration : 2 h 14 minBit rate mode : VariableBit rate : 58 b/sStream size : 56.8 KiB (0%)Title : English / SDHForced : NoEncoded date : UTC 2018-06-26 16:23:58Tagged date : UTC 2018-06-26 16:23:58

Text #8ID : 12Format : Timed TextCodec ID : tx3gDuration : 2 h 14 minBit rate mode : VariableBit rate : 68 b/sStream size : 67.1 KiB (0%)Title : English / SDH ColoredForced : NoEncoded date : UTC 2018-06-26 16:23:58Tagged date : UTC 2018-06-26 16:23:58


Трекер:  [ 26-Июн-2018 20:06 ]

  

Скачать .torrent

Размер .torrent файла 18 KB


Размер: 1.78 GB
Хэш (hash) релиза: 2c8bcf484dabad4b0ac3b20a22a3a97fc13314c8

Еще никто не оставлял запись к записи скачать торрент [VIDEO] Чёрная Пантера Black Panther . Будь первым!

!Обратная связь