Cambio dieta | Policier | Vol. 2 Ch. 11 - The Corpse is Too Cold

Скачать через торрент [VIDEO] Чёрная Пантера Black Panther бесплатно русская версия torrent активатор

Статистика раздачи
Размер:  608 MB   |    Зарегистрирован:  21 день   |    .torrent скачан:  33 раза   |   
Раздают:  1  
   
загрузка...
 
Автор Сообщение

Galfimbul

avatar Galfimbul


Чёрная Пантера / Black Panther


Год выпуска: 2018
Страна: США
Жанр: фантастика, боевик, приключения
Продолжительность: 02:14:33
Перевод: русский Профессиональный (полное дублирование) BD EUR
Субтитры: нет
Режиссер: Райан Куглер / Ryan Coogler
В ролях: Чедвик Боузман, Майкл Б. Джордан, Лупита Нионго, Данай Джекесай Гурира, Мартин Фриман, Дэниэл Калуя, Летишиа Райт, Уинстон Дьюк, Стерлинг К. Браун, Анджела Бассетт и другие .
Описание: С первого взгляда можно решить, что Ваканда — обычная территория дикой Африки, но это не так. Здесь, в недрах пустынных земель, скрываются залежи уникального металла, способного поглощать вибрацию. Многие пытались добраться до него, разоряя всё на своём пути и принося смерть аборигенам, но каждый раз таинственный дух саванны — Чёрная Пантера — вставал на защиту угнетённых.
Спустя много лет беда снова приходит в Ваканду, и в этот раз враг заручился поддержкой современных технологий. Когда шансов почти не остаётся, Т`Чалла, молодой принц Ваканды, узнаёт, что именно ему предстоит возродить легенду и продолжить вечную борьбу, надев маску Чёрной Пантеры .

Релиз группы

Качество: BDRip / рип с Blu-ray disc 1080p [EUR] (Кинозал)
Формат: MP4
Видео кодек: XviD
Аудио кодек: AAC
Видео: 480x200 AR:2.40 500 kbps 23.976 fps
Аудио: [Russian] 2ch 48 kHz 128 kbps - [Dub] Профессиональный (полное дублирование) BD EUR
GeneralComplete name : K:\Torrents\Black Panther.2018.BDRip.XviD.480x.rip by Frost O.S.mp4Format : MPEG-4Format profile : 3GPP Media Release 5Codec ID : 3gp5 (isom/3gp5/3gp4/mp41/mp42)File size : 608 MiBDuration : 2 h 14 minOverall bit rate mode : VariableOverall bit rate : 632 kb/sEncoded date : UTC 2018-06-26 16:29:57Tagged date : UTC 2018-06-26 16:29:57Writing application : Yamb 2.1.0.0

VideoID : 1Format : MPEG-4 VisualFormat profile : Advanced [email protected] settings : BVOP / Custom MatrixFormat settings, BVOP : YesFormat settings, QPel : NoFormat settings, GMC : No warppointsFormat settings, Matrix : CustomCodec ID : mp4v-20Duration : 2 h 14 minBit rate mode : VariableBit rate : 500 kb/sMaximum bit rate : 4 952 kb/sWidth : 480 pixelsHeight : 200 pixelsDisplay aspect ratio : 2.40:1Frame rate mode : VariableFrame rate : 23.976 (24000/1001) FPSMinimum frame rate : 11.988 FPSMaximum frame rate : 23.976 FPSColor space : YUVChroma subsampling : 4:2:0Bit depth : 8 bitsScan type : ProgressiveCompression mode : LossyBits/(Pixel*Frame) : 0.217Stream size : 481 MiB (79%)Title : [email protected]-DEV-rev248-g39d5978-masterWriting library : XviD 1.2.1 (UTC 2008-12-04)Encoded date : UTC 2018-06-26 15:35:41Tagged date : UTC 2018-06-26 16:30:02

AudioID : 2Format : AACFormat/Info : Advanced Audio CodecFormat profile : LCCodec ID : mp4a-40-2Duration : 2 h 14 minBit rate mode : VariableBit rate : 128 kb/sMaximum bit rate : 137 kb/sChannel(s) : 2 channelsChannel positions : Front: L RSampling rate : 48.0 kHzFrame rate : 46.875 FPS (1024 SPF)Compression mode : LossyStream size : 123 MiB (20%)Title : Russian / Dub, BD EUREncoded date : UTC 2018-06-26 15:59:32Tagged date : UTC 2018-06-26 16:30:02


Трекер:  [ 26-Июн-2018 20:06 ]

  

Скачать .torrent

Размер .torrent файла 12 KB


Размер: 608 MB
Хэш (hash) релиза: ffc5c21e3245bfafb4e5a93de988294f7bed31b4

Еще никто не оставлял запись к записи скачать торрент [VIDEO] Чёрная Пантера Black Panther . Будь первым!

!Обратная связь