American.Housewife.S03E07.The.Code.720p.AMZN.WEBRip.DDP5.1.x264-NTb[TGx] | Electro Techno et House | Greenleaf

Скачать через торрент музыку Большие гонки The Great Race бесплатно без регистрации torrent

Статистика раздачи
Размер:  776 MB   |    Зарегистрирован:  4 месяца 18 дней   |    .torrent скачан:  29 раз   |   
Раздают:  1  
   
загрузка...
 
Автор Сообщение

Galfimbul

avatar Galfimbul


Большие гонки |
The Great Race 3 CD Box-set
Жанр: Score
Композитор: Henry Mancini
Год выпуска диска: 2017
Год выпуска фильма:1965
Страна-производитель диска: USA
Издатель (лейбл): La-La Land Records
Номер по каталогу: LLLCD 1372
Аудио кодек: FLAC (*.flac)
Тип рипа: tracks+.cue
Битрейт аудио: lossless
Общая продолжительность: 02:22:11
Источник: Собственный рип
Наличие сканов в содержимом раздачи: да, 600 dpi, jpg
Треклист:
1.Overture (03:49)
2.Main Title (The Sweetheart Tree) (02:56)
3.Fanfare No. 1 / The Great Race March (01:18)
4.Enter Lerlie (01:30)
5.Enter Professor Fate (02:23)
6.Up Your Exhaust Pipe (02:23)
7.Fate Again (02:03)
8.Exposed! / Holy Cow (03:17)
9.Fate Is a Fink (02:19)
10.Enter Maggie / Fickle Fate (02:02)
11. The Desert Song (03:31)
12. New York to Paris (The Great Race March) (02:39)
13. Fanfare (Times Square) / They're Off (02:40)
14. Pigeon / Stranded (01:45)
15. Smoke Screen (02:07)
16. It Looks Like a Big Night Tonight (01:52)
17. He Shouldn't-A, Hadn't-A, Oughtn't-A Swang On Me (04:41)
18. He Shouldn't-A, Hadn't-A, Oughtn't-A Swang On Me (band) (01:16)
19. Texas Jack (01:08)
20. It Looks Like a Big Night Tonight (reprise) (01:48)
21. It Looks Like a Big Night Tonight (piano) (01:13)
22. That Finishes Them! / Off to Grommet (01:42)
23. Rise and Shine (02:03)
<div class="sp-wrap">
<div class="sp-head folded">Лог создания рипа</div>
<div class="sp-body">

Exact Audio Copy V1.3 from 2. September 2016

EAC extraction logfile from 26. June 2018, 10:41

Henry Mancini / The Great Race CD 1

Used drive : ATAPI iHBS312 2 Adapter: 1 ID: 1

Read mode : SecureUtilize accurate stream : YesDefeat audio cache : YesMake use of C2 pointers : No

Read offset correction : 6Overread into Lead-In and Lead-Out : NoFill up missing offset samples with silence : YesDelete leading and trailing silent blocks : NoNull samples used in CRC calculations : YesUsed interface : Native Win32 interface for Win NT & 2000Gap handling : Appended to previous track

Used output format : User Defined EncoderSelected bitrate : 1024 kBit/sQuality : HighAdd ID3 tag : NoCommand line compressor : C:\Program Files\Exact Audio Copy\Flac\flac.exeAdditional command line options : -V -8 -T "Genre=%genre%" -T "Artist=%artist%" -T "Title=%title%" -T "Album=%albumtitle%" -T "Date=%year%" -T "Tracknumber=%tracknr%" -T "Comment=%comment%" %source%

TOC of the extracted CD

Track | Start | Length | Start sector | End sector --------------------------------------------------------- 1 | 0:00.00 | 3:50.00 | 0 | 17249 2 | 3:50.00 | 2:55.30 | 17250 | 30404 3 | 6:45.30 | 1:18.60 | 30405 | 36314 4 | 8:04.15 | 1:28.17 | 36315 | 42931 5 | 9:32.32 | 2:24.13 | 42932 | 53744 6 | 11:56.45 | 2:22.59 | 53745 | 64453 7 | 14:19.29 | 2:01.55 | 64454 | 73583 8 | 16:21.09 | 3:16.46 | 73584 | 88329 9 | 19:37.55 | 2:20.36 | 88330 | 98865 10 | 21:58.16 | 2:02.33 | 98866 | 108048 11 | 24:00.49 | 3:30.49 | 108049 | 123847 12 | 27:31.23 | 2:38.14 | 123848 | 135711 13 | 30:09.37 | 2:39.13 | 135712 | 147649 14 | 32:48.50 | 1:44.49 | 147650 | 155498 15 | 34:33.24 | 2:08.44 | 155499 | 165142 16 | 36:41.68 | 1:50.50 | 165143 | 173442 17 | 38:32.43 | 4:41.10 | 173443 | 194527 18 | 43:13.53 | 1:15.64 | 194528 | 200216 19 | 44:29.42 | 1:08.26 | 200217 | 205342 20 | 45:37.68 | 1:49.54 | 205343 | 213571 21 | 47:27.47 | 1:13.22 | 213572 | 219068 22 | 48:40.69 | 1:41.60 | 219069 | 226703 23 | 50:22.54 | 2:01.71 | 226704 | 235849

Track 1

Filename F:\torrent\Great Race_Henry Mancini 3 CD\CD 1\score\01. Henry Mancini - Overture.wav

Pre-gap length 0:00:02.00

Peak level 98.8 % Extraction speed 5.1 X Track quality 100.0 % Test CRC CB6EB3D1 Copy CRC CB6EB3D1 Accurately ripped (confidence 10) [2013DC27] (AR v2) Copy OK

Track 2

Filename F:\torrent\Great Race_Henry Mancini 3 CD\CD 1\score\02. Henry Mancini - Main Title (The Sweetheart Tree).wav

Pre-gap length 0:00:01.31

Peak level 87.1 % Extraction speed 5.3 X Track quality 100.0 % Test CRC 64C43045 Copy CRC 64C43045 Accurately ripped (confidence 10) [725509A1] (AR v2) Copy OK

Track 3

Filename F:\torrent\Great Race_Henry Mancini 3 CD\CD 1\score\03. Henry Mancini - Fanfare No. 1 , The Great Race March.wav

Pre-gap length 0:00:01.12

Peak level 95.5 % Extraction speed 4.6 X Track quality 100.0 % Test CRC C7C25744 Copy CRC C7C25744 Accurately ripped (confidence 10) [E8E7838D] (AR v2) Copy OK

Track 4

Filename F:\torrent\Great Race_Henry Mancini 3 CD\CD 1\score\04. Henry Mancini - Enter Lerlie.wav

Pre-gap length 0:00:01.69

Peak level 98.8 % Extraction speed 4.9 X Track quality 100.0 % Test CRC 3CC25D7B Copy CRC 3CC25D7B Accurately ripped (confidence 10) [D99EB1BE] (AR v2) Copy OK

Track 5

Filename F:\torrent\Great Race_Henry Mancini 3 CD\CD 1\score\05. Henry Mancini - Enter Professor Fate.wav

Peak level 98.4 % Extraction speed 5.8 X Track quality 100.0 % Test CRC 51EAA2FB Copy CRC 51EAA2FB Accurately ripped (confidence 10) [B526DCE6] (AR v2) Copy OK

Track 6

Filename F:\torrent\Great Race_Henry Mancini 3 CD\CD 1\score\06. Henry Mancini - Up Your Exhaust Pipe.wav

Pre-gap length 0:00:01.04

Peak level 98.8 % Extraction speed 6.0 X Track quality 100.0 % Test CRC 14BCD887 Copy CRC 14BCD887 Accurately ripped (confidence 10) [13970308] (AR v2) Copy OK

Track 7

Filename F:\torrent\Great Race_Henry Mancini 3 CD\CD 1\score\07. Henry Mancini - Fate Again.wav

Pre-gap length 0:00:01.05

Peak level 95.7 % Extraction speed 6.0 X Track quality 100.0 % Test CRC 99C588D8 Copy CRC 99C588D8 Accurately ripped (confidence 10) [93B3A174] (AR v2) Copy OK

Track 8

Filename F:\torrent\Great Race_Henry Mancini 3 CD\CD 1\score\08. Henry Mancini - Exposed! , Holy Cow.wav

Peak level 98.8 % Extraction speed 6.9 X Track quality 100.0 % Test CRC FA6EA754 Copy CRC FA6EA754 Accurately ripped (confidence 10) [A9A553B2] (AR v2) Copy OK

Track 9

Filename F:\torrent\Great Race_Henry Mancini 3 CD\CD 1\score\09. Henry Mancini - Fate Is a Fink.wav

Peak level 98.8 % Extraction speed 6.7 X Track quality 100.0 % Test CRC 2675923E Copy CRC 2675923E Accurately ripped (confidence 10) [8A6F72C3] (AR v2) Copy OK

Track 10

Filename F:\torrent\Great Race_Henry Mancini 3 CD\CD 1\score\10. Henry Mancini - Enter Maggie , Fickle Fate.wav

Pre-gap length 0:00:01.43

Peak level 98.8 % Extraction speed 6.7 X Track quality 100.0 % Test CRC FD53D29C Copy CRC FD53D29C Accurately ripped (confidence 10) [6B89F270] (AR v2) Copy OK

Track 11

Filename F:\torrent\Great Race_Henry Mancini 3 CD\CD 1\score\11. Henry Mancini - The Desert Song.wav

Pre-gap length 0:00:02.16

Peak level 80.9 % Extraction speed 7.7 X Track quality 100.0 % Test CRC 3C234268 Copy CRC 3C234268 Accurately ripped (confidence 10) [2E39C1A1] (AR v2) Copy OK

Track 12

Filename F:\torrent\Great Race_Henry Mancini 3 CD\CD 1\score\12. Henry Mancini - New York to Paris (The Great Race March).wav

Pre-gap length 0:00:01.42

Peak level 98.8 % Extraction speed 7.6 X Track quality 100.0 % Test CRC 48BA4B28 Copy CRC 48BA4B28 Accurately ripped (confidence 10) [FCF89CBE] (AR v2) Copy OK

Track 13

Filename F:\torrent\Great Race_Henry Mancini 3 CD\CD 1\score\13. Henry Mancini - Fanfare (Times Square) , They're Off.wav

Pre-gap length 0:00:01.03

Peak level 98.4 % Extraction speed 7.9 X Track quality 100.0 % Test CRC E6CF9ADC Copy CRC E6CF9ADC Accurately ripped (confidence 10) [1A037EDA] (AR v2) Copy OK

Track 14

Filename F:\torrent\Great Race_Henry Mancini 3 CD\CD 1\score\14. Henry Mancini - Pigeon , Stranded.wav

Peak level 75.1 % Extraction speed 7.3 X Track quality 100.0 % Test CRC ADC1EABB Copy CRC ADC1EABB Accurately ripped (confidence 10) [9DAA098C] (AR v2) Copy OK

Track 15

Filename F:\torrent\Great Race_Henry Mancini 3 CD\CD 1\score\15. Henry Mancini - Smoke Screen.wav

Peak level 98.8 % Extraction speed 7.8 X Track quality 100.0 % Test CRC 6EC90023 Copy CRC 6EC90023 Accurately ripped (confidence 10) [495A4AEF] (AR v2) Copy OK

Track 16

Filename F:\torrent\Great Race_Henry Mancini 3 CD\CD 1\score\16. Henry Mancini - It Looks Like a Big Night Tonight.wav

Pre-gap length 0:00:01.41

Peak level 83.8 % Extraction speed 7.7 X Track quality 100.0 % Test CRC 2163C62F Copy CRC 2163C62F Accurately ripped (confidence 10) [B444E481] (AR v2) Copy OK

Track 17

Filename F:\torrent\Great Race_Henry Mancini 3 CD\CD 1\score\17. Henry Mancini - He Shouldn't-A, Hadn't-A, Oughtn't-A Swang On Me.wav

Peak level 87.4 % Extraction speed 9.3 X Track quality 100.0 % Test CRC 26947CA1 Copy CRC 26947CA1 Accurately ripped (confidence 10) [DAD7DBC8] (AR v2) Copy OK

Track 18

Filename F:\torrent\Great Race_Henry Mancini 3 CD\CD 1\score\18. Henry Mancini - He Shouldn't-A, Hadn't-A, Oughtn't-A Swang On Me (band).wav

Peak level 98.1 % Extraction speed 7.2 X Track quality 100.0 % Test CRC 816A04FB Copy CRC 816A04FB Accurately ripped (confidence 10) [EB4FF35A] (AR v2) Copy OK

Track 19

Filename F:\torrent\Great Race_Henry Mancini 3 CD\CD 1\score\19. Henry Mancini - Texas Jack.wav

Peak level 92.6 % Extraction speed 4.5 X Track quality 99.8 % Test CRC EBA1D46B Copy CRC EBA1D46B Accurately ripped (confidence 10) [14C85C45] (AR v2) Copy OK

Track 20

Filename F:\torrent\Great Race_Henry Mancini 3 CD\CD 1\score\20. Henry Mancini - It Looks Like a Big Night Tonight (reprise).wav

Peak level 85.2 % Extraction speed 8.2 X Track quality 100.0 % Test CRC 1648191E Copy CRC 1648191E Accurately ripped (confidence 10) [79B89AC0] (AR v2) Copy OK

Track 21

Filename F:\torrent\Great Race_Henry Mancini 3 CD\CD 1\score\21. Henry Mancini - It Looks Like a Big Night Tonight (piano).wav

Pre-gap length 0:00:01.38

Peak level 57.2 % Extraction speed 7.4 X Track quality 100.0 % Test CRC 65931B0A Copy CRC 65931B0A Accurately ripped (confidence 10) [B2885B12] (AR v2) Copy OK

Track 22

Filename F:\torrent\Great Race_Henry Mancini 3 CD\CD 1\score\22. Henry Mancini - That Finishes Them! , Off to Grommet.wav

Pre-gap length 0:00:01.37

Peak level 89.1 % Extraction speed 8.2 X Track quality 100.0 % Test CRC 0098A376 Copy CRC 0098A376 Accurately ripped (confidence 10) [6F4498AF] (AR v2) Copy OK

Track 23

Filename F:\torrent\Great Race_Henry Mancini 3 CD\CD 1\score\23. Henry Mancini - Rise and Shine.wav

Pre-gap length 0:00:01.10

Peak level 98.8 % Extraction speed 8.6 X Track quality 100.0 % Test CRC D9EEF946 Copy CRC D9EEF946 Accurately ripped (confidence 10) [0F194C2B] (AR v2) Copy OK

All tracks accurately ripped

No errors occurred

End of status report

---- CUETools DB Plugin V2.1.6

[CTDB TOCID: top_sehIjzpLw7RHw7G4FbBV9oQ-] foundSubmit result: top_sehIjzpLw7RHw7G4FbBV9oQ- has been confirmedTrack | CTDB Status 1 | (21/21) Accurately ripped 2 | (21/21) Accurately ripped 3 | (21/21) Accurately ripped 4 | (21/21) Accurately ripped 5 | (21/21) Accurately ripped 6 | (21/21) Accurately ripped 7 | (21/21) Accurately ripped 8 | (21/21) Accurately ripped 9 | (21/21) Accurately ripped 10 | (21/21) Accurately ripped 11 | (21/21) Accurately ripped 12 | (21/21) Accurately ripped 13 | (21/21) Accurately ripped 14 | (21/21) Accurately ripped 15 | (21/21) Accurately ripped 16 | (21/21) Accurately ripped 17 | (21/21) Accurately ripped 18 | (21/21) Accurately ripped 19 | (21/21) Accurately ripped 20 | (21/21) Accurately ripped 21 | (21/21) Accurately ripped 22 | (21/21) Accurately ripped 23 | (21/21) Accurately ripped

==== Log checksum A5509F3BC76BDE4F8C65E9C109212275003FA45CCE6187FA6FAF507FF8AA78D9 ====
REM GENRE SoundtrackREM DATE 2017REM DISCID 400C4817REM COMMENT "ExactAudioCopy v1.3"PERFORMER "Henry Mancini"TITLE "The Great Race CD 1"REM COMPOSER ""FILE "01. Henry Mancini - Overture.wav" WAVE TRACK 01 AUDIO TITLE "Overture" PERFORMER "Henry Mancini" REM COMPOSER "" INDEX 01 00:00:00 TRACK 02 AUDIO TITLE "Main Title (The Sweetheart Tree)" PERFORMER "Henry Mancini" REM COMPOSER "" INDEX 00 03:48:44FILE "02. Henry Mancini - Main Title (The Sweetheart Tree).wav" WAVE INDEX 01 00:00:00 TRACK 03 AUDIO TITLE "Fanfare No. 1 / The Great Race March" PERFORMER "Henry Mancini" REM COMPOSER "" INDEX 00 02:54:18FILE "03. Henry Mancini - Fanfare No. 1 , The Great Race March.wav" WAVE INDEX 01 00:00:00 TRACK 04 AUDIO TITLE "Enter Lerlie" PERFORMER "Henry Mancini" REM COMPOSER "" INDEX 00 01:16:66FILE "04. Henry Mancini - Enter Lerlie.wav" WAVE INDEX 01 00:00:00FILE "05. Henry Mancini - Enter Professor Fate.wav" WAVE TRACK 05 AUDIO TITLE "Enter Professor Fate" PERFORMER "Henry Mancini" REM COMPOSER "" INDEX 01 00:00:00 TRACK 06 AUDIO TITLE "Up Your Exhaust Pipe" PERFORMER "Henry Mancini" REM COMPOSER "" INDEX 00 02:23:09FILE "06. Henry Mancini - Up Your Exhaust Pipe.wav" WAVE INDEX 01 00:00:00 TRACK 07 AUDIO TITLE "Fate Again" PERFORMER "Henry Mancini" REM COMPOSER "" INDEX 00 02:21:54FILE "07. Henry Mancini - Fate Again.wav" WAVE INDEX 01 00:00:00FILE "08. Henry Mancini - Exposed! , Holy Cow.wav" WAVE TRACK 08 AUDIO TITLE "Exposed! / Holy Cow" PERFORMER "Henry Mancini" REM COMPOSER "" INDEX 01 00:00:00FILE "09. Henry Mancini - Fate Is a Fink.wav" WAVE TRACK 09 AUDIO TITLE "Fate Is a Fink" PERFORMER "Henry Mancini" REM COMPOSER "" INDEX 01 00:00:00 TRACK 10 AUDIO TITLE "Enter Maggie / Fickle Fate" PERFORMER "Henry Mancini" REM COMPOSER "" INDEX 00 02:18:68FILE "10. Henry Mancini - Enter Maggie , Fickle Fate.wav" WAVE INDEX 01 00:00:00 TRACK 11 AUDIO TITLE "The Desert Song" PERFORMER "Henry Mancini" REM COMPOSER "" INDEX 00 02:00:17FILE "11. Henry Mancini - The Desert Song.wav" WAVE INDEX 01 00:00:00 TRACK 12 AUDIO TITLE "New York to Paris (The Great Race March)" PERFORMER "Henry Mancini" REM COMPOSER "" INDEX 00 03:29:07FILE "12. Henry Mancini - New York to Paris (The Great Race March).wav" WAVE INDEX 01 00:00:00 TRACK 13 AUDIO TITLE "Fanfare (Times Square) / They're Off" PERFORMER "Henry Mancini" REM COMPOSER "" INDEX 00 02:37:11FILE "13. Henry Mancini - Fanfare (Times Square) , They're Off.wav" WAVE INDEX 01 00:00:00FILE "14. Henry Mancini - Pigeon , Stranded.wav" WAVE TRACK 14 AUDIO TITLE "Pigeon / Stranded" PERFORMER "Henry Mancini" REM COMPOSER "" INDEX 01 00:00:00FILE "15. Henry Mancini - Smoke Screen.wav" WAVE TRACK 15 AUDIO TITLE "Smoke Screen" PERFORMER "Henry Mancini" REM COMPOSER "" INDEX 01 00:00:00 TRACK 16 AUDIO TITLE "It Looks Like a Big Night Tonight" PERFORMER "Henry Mancini" REM COMPOSER "" INDEX 00 02:07:03FILE "16. Henry Mancini - It Looks Like a Big Night Tonight.wav" WAVE INDEX 01 00:00:00FILE "17. Henry Mancini - He Shouldn't-A, Hadn't-A, Oughtn't-A Swang On Me.wav" WAVE TRACK 17 AUDIO TITLE "He Shouldn't-A, Hadn't-A, Oughtn't-A Swang On Me" PERFORMER "Henry Mancini" REM COMPOSER "" INDEX 01 00:00:00FILE "18. Henry Mancini - He Shouldn't-A, Hadn't-A, Oughtn't-A Swang On Me (band).wav" WAVE TRACK 18 AUDIO TITLE "He Shouldn't-A, Hadn't-A, Oughtn't-A Swang On Me (band)" PERFORMER "Henry Mancini" REM COMPOSER "" INDEX 01 00:00:00FILE "19. Henry Mancini - Texas Jack.wav" WAVE TRACK 19 AUDIO TITLE "Texas Jack" PERFORMER "Henry Mancini" REM COMPOSER "" INDEX 01 00:00:00FILE "20. Henry Mancini - It Looks Like a Big Night Tonight (reprise).wav" WAVE TRACK 20 AUDIO TITLE "It Looks Like a Big Night Tonight (reprise)" PERFORMER "Henry Mancini" REM COMPOSER "" INDEX 01 00:00:00 TRACK 21 AUDIO TITLE "It Looks Like a Big Night Tonight (piano)" PERFORMER "Henry Mancini" REM COMPOSER "" INDEX 00 01:48:16FILE "21. Henry Mancini - It Looks Like a Big Night Tonight (piano).wav" WAVE INDEX 01 00:00:00 TRACK 22 AUDIO TITLE "That Finishes Them! / Off to Grommet" PERFORMER "Henry Mancini" REM COMPOSER "" INDEX 00 01:11:60FILE "22. Henry Mancini - That Finishes Them! , Off to Grommet.wav" WAVE INDEX 01 00:00:00 TRACK 23 AUDIO TITLE "Rise and Shine" PERFORMER "Henry Mancini" REM COMPOSER "" INDEX 00 01:40:50FILE "23. Henry Mancini - Rise and Shine.wav" WAVE INDEX 01 00:00:00
</div>
</div>
Треклист:
1. Entr'Acte (The Sweetheart Tree) / Red Sky (03:56)
2. Another Foot (02:19)
3. Saved! (01:13)
4. Captured! / Under Arrest (02:00)
5. Princely Fanfare / His Royal Highness (00:47)
6. Dance Medley (05:07)
7. Whispering / Good Night, Sweet Prince (01:45)
8. It's a Secret (02:31)
9. Heir to the Throne (00:53)
10. Dirty Little Rat (02:30)
11. Strict Orders (01:51)
12. Dey Dere (02:50)
13. Leslie Leaps In (02:57)
14. En Garde (01:20)
15. En Garde Again (02:08)
16. Coronation (01:04)
17. Faster! / Faster Still! / Escape! (00:54)
18. Pie-in-the-Face Polka (03:51)
19. The Sweetheart Tree (vocal) (02:40)
20. Paris (02:21)
21. Finish Line (01:14)
22. Paris to New York - End Title (01:35)
23. End Cast (00:35)
24. Exit Music (01:53)
25. It Looks Like a Big Night Tonight (full lyrics) (01:59)
26. Toccata and Fugue in D Minor (excerpts) (06:17)
27. Princely Organ Music (00:48)
28. Guitar Strums / The Sweetheart Tree (alternate vocal) (02:50)
<div class="sp-wrap">
<div class="sp-head folded">Лог создания рипа</div>
<div class="sp-body">

Exact Audio Copy V1.3 from 2. September 2016

EAC extraction logfile from 26. June 2018, 11:38

Henry Mancini / The Great Race CD 2

Used drive : ATAPI iHBS312 2 Adapter: 1 ID: 1

Read mode : SecureUtilize accurate stream : YesDefeat audio cache : YesMake use of C2 pointers : No

Read offset correction : 6Overread into Lead-In and Lead-Out : NoFill up missing offset samples with silence : YesDelete leading and trailing silent blocks : NoNull samples used in CRC calculations : YesUsed interface : Native Win32 interface for Win NT & 2000Gap handling : Appended to previous track

Used output format : User Defined EncoderSelected bitrate : 1024 kBit/sQuality : HighAdd ID3 tag : NoCommand line compressor : C:\Program Files\Exact Audio Copy\Flac\flac.exeAdditional command line options : -V -8 -T "Genre=%genre%" -T "Artist=%artist%" -T "Title=%title%" -T "Album=%albumtitle%" -T "Date=%year%" -T "Tracknumber=%tracknr%" -T "Comment=%comment%" %source%

TOC of the extracted CD

Track | Start | Length | Start sector | End sector --------------------------------------------------------- 1 | 0:00.00 | 3:55.40 | 0 | 17664 2 | 3:55.40 | 2:18.55 | 17665 | 28069 3 | 6:14.20 | 1:13.72 | 28070 | 33616 4 | 7:28.17 | 2:00.12 | 33617 | 42628 5 | 9:28.29 | 0:46.67 | 42629 | 46145 6 | 10:15.21 | 5:07.00 | 46146 | 69170 7 | 15:22.21 | 1:45.33 | 69171 | 77078 8 | 17:07.54 | 2:30.09 | 77079 | 88337 9 | 19:37.63 | 0:53.05 | 88338 | 92317 10 | 20:30.68 | 2:28.41 | 92318 | 103458 11 | 22:59.34 | 1:51.23 | 103459 | 111806 12 | 24:50.57 | 2:49.42 | 111807 | 124523 13 | 27:40.24 | 2:57.29 | 124524 | 137827 14 | 30:37.53 | 1:21.14 | 137828 | 143916 15 | 31:58.67 | 2:06.52 | 143917 | 153418 16 | 34:05.44 | 1:04.01 | 153419 | 158219 17 | 35:09.45 | 0:53.59 | 158220 | 162253 18 | 36:03.29 | 3:50.63 | 162254 | 179566 19 | 39:54.17 | 2:39.45 | 179567 | 191536 20 | 42:33.62 | 2:21.03 | 191537 | 202114 21 | 44:54.65 | 1:14.27 | 202115 | 207691 22 | 46:09.17 | 1:35.37 | 207692 | 214853 23 | 47:44.54 | 0:35.35 | 214854 | 217513 24 | 48:20.14 | 2:01.47 | 217514 | 226635 25 | 50:21.61 | 1:52.12 | 226636 | 235047 26 | 52:13.73 | 6:15.58 | 235048 | 263230 27 | 58:29.56 | 0:50.41 | 263231 | 267021 28 | 59:20.22 | 2:47.29 | 267022 | 279575

Track 1

Filename F:\torrent\Great Race_Henry Mancini 3 CD\CD 2\score\01. Henry Mancini - Entr'Acte (The Sweetheart Tree) , Red Sky.wav

Pre-gap length 0:00:02.00

Peak level 93.9 % Extraction speed 5.1 X Track quality 100.0 % Test CRC 3F84D72E Copy CRC 3F84D72E Accurately ripped (confidence 10) [E40001D0] (AR v2) Copy OK

Track 2

Filename F:\torrent\Great Race_Henry Mancini 3 CD\CD 2\score\02. Henry Mancini - Another Foot.wav

Pre-gap length 0:00:01.12

Peak level 40.2 % Extraction speed 5.1 X Track quality 100.0 % Test CRC 2C84F796 Copy CRC 2C84F796 Accurately ripped (confidence 10) [9698FA62] (AR v2) Copy OK

Track 3

Filename F:\torrent\Great Race_Henry Mancini 3 CD\CD 2\score\03. Henry Mancini - Saved!.wav

Pre-gap length 0:00:01.09

Peak level 98.8 % Extraction speed 4.4 X Track quality 100.0 % Test CRC 84BC79D3 Copy CRC 84BC79D3 Accurately ripped (confidence 10) [D8B13DC2] (AR v2) Copy OK

Track 4

Filename F:\torrent\Great Race_Henry Mancini 3 CD\CD 2\score\04. Henry Mancini - Captured! , Under Arrest.wav

Pre-gap length 0:00:01.57

Peak level 98.7 % Extraction speed 3.9 X Track quality 99.9 % Test CRC EEABA086 Copy CRC EEABA086 Accurately ripped (confidence 10) [A9BE4B8C] (AR v2) Copy OK

Track 5

Filename F:\torrent\Great Race_Henry Mancini 3 CD\CD 2\score\05. Henry Mancini - Princely Fanfare , His Royal Highness.wav

Pre-gap length 0:00:01.44

Peak level 98.8 % Extraction speed 3.9 X Track quality 100.0 % Test CRC 39DDC18A Copy CRC 39DDC18A Accurately ripped (confidence 10) [B1B8E4E1] (AR v2) Copy OK

Track 6

Filename F:\torrent\Great Race_Henry Mancini 3 CD\CD 2\score\06. Henry Mancini - Dance Medley.wav

Pre-gap length 0:00:01.09

Peak level 88.6 % Extraction speed 6.7 X Track quality 100.0 % Test CRC BBE27983 Copy CRC BBE27983 Accurately ripped (confidence 10) [2D0E1FB3] (AR v2) Copy OK

Track 7

Filename F:\torrent\Great Race_Henry Mancini 3 CD\CD 2\score\07. Henry Mancini - Whispering , Good Night, Sweet Prince.wav

Pre-gap length 0:00:01.10

Peak level 81.9 % Extraction speed 5.9 X Track quality 100.0 % Test CRC 7E575EA8 Copy CRC 7E575EA8 Accurately ripped (confidence 10) [72F5BB49] (AR v2) Copy OK

Track 8

Filename F:\torrent\Great Race_Henry Mancini 3 CD\CD 2\score\08. Henry Mancini - It's a Secret.wav

Pre-gap length 0:00:01.48

Peak level 98.8 % Extraction speed 6.6 X Track quality 100.0 % Test CRC F3327E2C Copy CRC F3327E2C Accurately ripped (confidence 10) [B21A6070] (AR v2) Copy OK

Track 9

Filename F:\torrent\Great Race_Henry Mancini 3 CD\CD 2\score\09. Henry Mancini - Heir to the Throne.wav

Pre-gap length 0:00:01.04

Peak level 98.8 % Extraction speed 5.0 X Track quality 100.0 % Test CRC 84343AC8 Copy CRC 84343AC8 Accurately ripped (confidence 10) [1845B3CC] (AR v2) Copy OK

Track 10

Filename F:\torrent\Great Race_Henry Mancini 3 CD\CD 2\score\10. Henry Mancini - Dirty Little Rat.wav

Pre-gap length 0:00:01.08

Peak level 44.5 % Extraction speed 6.9 X Track quality 100.0 % Test CRC F6032F38 Copy CRC F6032F38 Accurately ripped (confidence 10) [5D8056B3] (AR v2) Copy OK

Track 11

Filename F:\torrent\Great Race_Henry Mancini 3 CD\CD 2\score\11. Henry Mancini - Strict Orders.wav

Peak level 96.7 % Extraction speed 6.7 X Track quality 100.0 % Test CRC 0C60250C Copy CRC 0C60250C Accurately ripped (confidence 10) [B5487526] (AR v2) Copy OK

Track 12

Filename F:\torrent\Great Race_Henry Mancini 3 CD\CD 2\score\12. Henry Mancini - Dey Dere.wav

Peak level 66.5 % Extraction speed 7.5 X Track quality 100.0 % Test CRC 6A516F5F Copy CRC 6A516F5F Accurately ripped (confidence 10) [155C2215] (AR v2) Copy OK

Track 13

Filename F:\torrent\Great Race_Henry Mancini 3 CD\CD 2\score\13. Henry Mancini - Leslie Leaps In.wav

Peak level 98.8 % Extraction speed 7.8 X Track quality 100.0 % Test CRC 016FB537 Copy CRC 016FB537 Accurately ripped (confidence 10) [58643246] (AR v2) Copy OK

Track 14

Filename F:\torrent\Great Race_Henry Mancini 3 CD\CD 2\score\14. Henry Mancini - En Garde.wav

Peak level 39.5 % Extraction speed 6.6 X Track quality 100.0 % Test CRC 015777AB Copy CRC 015777AB Accurately ripped (confidence 10) [C299B2AB] (AR v2) Copy OK

Track 15

Filename F:\torrent\Great Race_Henry Mancini 3 CD\CD 2\score\15. Henry Mancini - En Garde Again.wav

Pre-gap length 0:00:01.39

Peak level 93.6 % Extraction speed 7.5 X Track quality 100.0 % Test CRC 04D2E835 Copy CRC 04D2E835 Accurately ripped (confidence 10) [642B8D18] (AR v2) Copy OK

Track 16

Filename F:\torrent\Great Race_Henry Mancini 3 CD\CD 2\score\16. Henry Mancini - Coronation.wav

Peak level 68.9 % Extraction speed 6.3 X Track quality 100.0 % Test CRC 9210222C Copy CRC 9210222C Accurately ripped (confidence 10) [A109962F] (AR v2) Copy OK

Track 17

Filename F:\torrent\Great Race_Henry Mancini 3 CD\CD 2\score\17. Henry Mancini - Faster! , Faster Still! , Escape!.wav

Peak level 98.8 % Extraction speed 3.6 X Track quality 99.8 % Test CRC 5543675D Copy CRC 5543675D Accurately ripped (confidence 10) [078D62B5] (AR v2) Copy OK

Track 18

Filename F:\torrent\Great Race_Henry Mancini 3 CD\CD 2\score\18. Henry Mancini - Pie-in-the-Face Polka.wav

Peak level 98.8 % Extraction speed 8.8 X Track quality 100.0 % Test CRC 0E90ADE8 Copy CRC 0E90ADE8 Accurately ripped (confidence 10) [2880956E] (AR v2) Copy OK

Track 19

Filename F:\torrent\Great Race_Henry Mancini 3 CD\CD 2\score\19. Henry Mancini - The Sweetheart Tree (vocal).wav

Peak level 64.1 % Extraction speed 8.6 X Track quality 100.0 % Test CRC F537C091 Copy CRC F537C091 Accurately ripped (confidence 10) [515E67F6] (AR v2) Copy OK

Track 20

Filename F:\torrent\Great Race_Henry Mancini 3 CD\CD 2\score\20. Henry Mancini - Paris.wav

Peak level 98.8 % Extraction speed 8.5 X Track quality 100.0 % Test CRC B3DED72F Copy CRC B3DED72F Accurately ripped (confidence 10) [81B39E9E] (AR v2) Copy OK

Track 21

Filename F:\torrent\Great Race_Henry Mancini 3 CD\CD 2\score\21. Henry Mancini - Finish Line.wav

Peak level 98.8 % Extraction speed 4.7 X Track quality 99.8 % Test CRC F0BF063B Copy CRC F0BF063B Accurately ripped (confidence 10) [3C392F82] (AR v2) Copy OK

Track 22

Filename F:\torrent\Great Race_Henry Mancini 3 CD\CD 2\score\22. Henry Mancini - Paris to New York - End Title.wav

Peak level 98.8 % Extraction speed 7.9 X Track quality 100.0 % Test CRC E1BA21F1 Copy CRC E1BA21F1 Accurately ripped (confidence 10) [ADD058ED] (AR v2) Copy OK

Track 23

Filename F:\torrent\Great Race_Henry Mancini 3 CD\CD 2\score\23. Henry Mancini - End Cast.wav

Peak level 98.8 % Extraction speed 5.3 X Track quality 100.0 % Test CRC 50FED9A6 Copy CRC 50FED9A6 Accurately ripped (confidence 10) [0AEE1419] (AR v2) Copy OK

Track 24

Filename F:\torrent\Great Race_Henry Mancini 3 CD\CD 2\score\24. Henry Mancini - Exit Music.wav

Peak level 98.8 % Extraction speed 8.6 X Track quality 100.0 % Test CRC DABCAB99 Copy CRC DABCAB99 Accurately ripped (confidence 10) [677ECDC1] (AR v2) Copy OK

Track 25

Filename F:\torrent\Great Race_Henry Mancini 3 CD\CD 2\score\25. Henry Mancini - It Looks Like a Big Night Tonight (full lyrics).wav

Pre-gap length 0:00:08.20

Peak level 77.6 % Extraction speed 8.5 X Track quality 100.0 % Test CRC 4F88B71A Copy CRC 4F88B71A Accurately ripped (confidence 10) [EBB87EFE] (AR v2) Copy OK

Track 26

Filename F:\torrent\Great Race_Henry Mancini 3 CD\CD 2\score\26. Henry Mancini - Toccata and Fugue in D Minor (excerpts).wav

Pre-gap length 0:00:01.54

Peak level 63.4 % Extraction speed 10.6 X Track quality 100.0 % Test CRC 65F32EDD Copy CRC 65F32EDD Accurately ripped (confidence 10) [B4BFC006] (AR v2) Copy OK

Track 27

Filename F:\torrent\Great Race_Henry Mancini 3 CD\CD 2\score\27. Henry Mancini - Princely Organ Music.wav

Peak level 81.7 % Extraction speed 6.9 X Track quality 100.0 % Test CRC 5293E91C Copy CRC 5293E91C Accurately ripped (confidence 10) [C0A44150] (AR v2) Copy OK

Track 28

Filename F:\torrent\Great Race_Henry Mancini 3 CD\CD 2\score\28. Henry Mancini - Guitar Strums , The Sweetheart Tree (alternate vocal).wav

Pre-gap length 0:00:02.41

Peak level 46.8 % Extraction speed 9.8 X Track quality 100.0 % Test CRC BFB83107 Copy CRC BFB83107 Accurately ripped (confidence 10) [0038C15B] (AR v2) Copy OK

All tracks accurately ripped

No errors occurred

End of status report

---- CUETools DB Plugin V2.1.6

[CTDB TOCID: 02Kh066J2Fe5UF2aqRsq_BPnf.8-] foundSubmit result: 02Kh066J2Fe5UF2aqRsq_BPnf.8- has been confirmedTrack | CTDB Status 1 | (19/19) Accurately ripped 2 | (19/19) Accurately ripped 3 | (19/19) Accurately ripped 4 | (19/19) Accurately ripped 5 | (19/19) Accurately ripped 6 | (19/19) Accurately ripped 7 | (19/19) Accurately ripped 8 | (19/19) Accurately ripped 9 | (19/19) Accurately ripped 10 | (19/19) Accurately ripped 11 | (19/19) Accurately ripped 12 | (19/19) Accurately ripped 13 | (19/19) Accurately ripped 14 | (19/19) Accurately ripped 15 | (19/19) Accurately ripped 16 | (19/19) Accurately ripped 17 | (19/19) Accurately ripped 18 | (19/19) Accurately ripped 19 | (19/19) Accurately ripped 20 | (19/19) Accurately ripped 21 | (19/19) Accurately ripped 22 | (19/19) Accurately ripped 23 | (19/19) Accurately ripped 24 | (19/19) Accurately ripped 25 | (19/19) Accurately ripped 26 | (19/19) Accurately ripped 27 | (19/19) Accurately ripped 28 | (19/19) Accurately ripped

==== Log checksum DAD510144B7F4314263D9DA28313FF69F3991F8CB4AE77038A54D699905CA109 ====
REM GENRE SoundtrackREM DATE 2017REM DISCID 820E8F1CREM COMMENT "ExactAudioCopy v1.3"PERFORMER "Henry Mancini"TITLE "The Great Race CD 2"REM COMPOSER ""FILE "01. Henry Mancini - Entr'Acte (The Sweetheart Tree) , Red Sky.wav" WAVE TRACK 01 AUDIO TITLE "Entr'Acte (The Sweetheart Tree) / Red Sky" PERFORMER "Henry Mancini" REM COMPOSER "" INDEX 01 00:00:00 TRACK 02 AUDIO TITLE "Another Foot" PERFORMER "Henry Mancini" REM COMPOSER "" INDEX 00 03:54:28FILE "02. Henry Mancini - Another Foot.wav" WAVE INDEX 01 00:00:00 TRACK 03 AUDIO TITLE "Saved!" PERFORMER "Henry Mancini" REM COMPOSER "" INDEX 00 02:17:46FILE "03. Henry Mancini - Saved!.wav" WAVE INDEX 01 00:00:00 TRACK 04 AUDIO TITLE "Captured! / Under Arrest" PERFORMER "Henry Mancini" REM COMPOSER "" INDEX 00 01:12:15FILE "04. Henry Mancini - Captured! , Under Arrest.wav" WAVE INDEX 01 00:00:00 TRACK 05 AUDIO TITLE "Princely Fanfare / His Royal Highness" PERFORMER "Henry Mancini" REM COMPOSER "" INDEX 00 01:58:43FILE "05. Henry Mancini - Princely Fanfare , His Royal Highness.wav" WAVE INDEX 01 00:00:00 TRACK 06 AUDIO TITLE "Dance Medley" PERFORMER "Henry Mancini" REM COMPOSER "" INDEX 00 00:45:58FILE "06. Henry Mancini - Dance Medley.wav" WAVE INDEX 01 00:00:00 TRACK 07 AUDIO TITLE "Whispering / Good Night, Sweet Prince" PERFORMER "Henry Mancini" REM COMPOSER "" INDEX 00 05:05:65FILE "07. Henry Mancini - Whispering , Good Night, Sweet Prince.wav" WAVE INDEX 01 00:00:00 TRACK 08 AUDIO TITLE "It's a Secret" PERFORMER "Henry Mancini" REM COMPOSER "" INDEX 00 01:43:60FILE "08. Henry Mancini - It's a Secret.wav" WAVE INDEX 01 00:00:00 TRACK 09 AUDIO TITLE "Heir to the Throne" PERFORMER "Henry Mancini" REM COMPOSER "" INDEX 00 02:29:05FILE "09. Henry Mancini - Heir to the Throne.wav" WAVE INDEX 01 00:00:00 TRACK 10 AUDIO TITLE "Dirty Little Rat" PERFORMER "Henry Mancini" REM COMPOSER "" INDEX 00 00:51:72FILE "10. Henry Mancini - Dirty Little Rat.wav" WAVE INDEX 01 00:00:00FILE "11. Henry Mancini - Strict Orders.wav" WAVE TRACK 11 AUDIO TITLE "Strict Orders" PERFORMER "Henry Mancini" REM COMPOSER "" INDEX 01 00:00:00FILE "12. Henry Mancini - Dey Dere.wav" WAVE TRACK 12 AUDIO TITLE "Dey Dere" PERFORMER "Henry Mancini" REM COMPOSER "" INDEX 01 00:00:00FILE "13. Henry Mancini - Leslie Leaps In.wav" WAVE TRACK 13 AUDIO TITLE "Leslie Leaps In" PERFORMER "Henry Mancini" REM COMPOSER "" INDEX 01 00:00:00FILE "14. Henry Mancini - En Garde.wav" WAVE TRACK 14 AUDIO TITLE "En Garde" PERFORMER "Henry Mancini" REM COMPOSER "" INDEX 01 00:00:00 TRACK 15 AUDIO TITLE "En Garde Again" PERFORMER "Henry Mancini" REM COMPOSER "" INDEX 00 01:19:50FILE "15. Henry Mancini - En Garde Again.wav" WAVE INDEX 01 00:00:00FILE "16. Henry Mancini - Coronation.wav" WAVE TRACK 16 AUDIO TITLE "Coronation" PERFORMER "Henry Mancini" REM COMPOSER "" INDEX 01 00:00:00FILE "17. Henry Mancini - Faster! , Faster Still! , Escape!.wav" WAVE TRACK 17 AUDIO TITLE "Faster! / Faster Still! / Escape!" PERFORMER "Henry Mancini" REM COMPOSER "" INDEX 01 00:00:00FILE "18. Henry Mancini - Pie-in-the-Face Polka.wav" WAVE TRACK 18 AUDIO TITLE "Pie-in-the-Face Polka" PERFORMER "Henry Mancini" REM COMPOSER "" INDEX 01 00:00:00FILE "19. Henry Mancini - The Sweetheart Tree (vocal).wav" WAVE TRACK 19 AUDIO TITLE "The Sweetheart Tree (vocal)" PERFORMER "Henry Mancini" REM COMPOSER "" INDEX 01 00:00:00FILE "20. Henry Mancini - Paris.wav" WAVE TRACK 20 AUDIO TITLE "Paris" PERFORMER "Henry Mancini" REM COMPOSER "" INDEX 01 00:00:00FILE "21. Henry Mancini - Finish Line.wav" WAVE TRACK 21 AUDIO TITLE "Finish Line" PERFORMER "Henry Mancini" REM COMPOSER "" INDEX 01 00:00:00FILE "22. Henry Mancini - Paris to New York - End Title.wav" WAVE TRACK 22 AUDIO TITLE "Paris to New York - End Title" PERFORMER "Henry Mancini" REM COMPOSER "" INDEX 01 00:00:00FILE "23. Henry Mancini - End Cast.wav" WAVE TRACK 23 AUDIO TITLE "End Cast" PERFORMER "Henry Mancini" REM COMPOSER "" INDEX 01 00:00:00FILE "24. Henry Mancini - Exit Music.wav" WAVE TRACK 24 AUDIO TITLE "Exit Music" PERFORMER "Henry Mancini" REM COMPOSER "" INDEX 01 00:00:00 TRACK 25 AUDIO TITLE "It Looks Like a Big Night Tonight (full lyrics)" PERFORMER "Henry Mancini" REM COMPOSER "" INDEX 00 01:53:27FILE "25. Henry Mancini - It Looks Like a Big Night Tonight (full lyrics).wav" WAVE INDEX 01 00:00:00 TRACK 26 AUDIO TITLE "Toccata and Fugue in D Minor (excerpts)" PERFORMER "Henry Mancini" REM COMPOSER "" INDEX 00 01:50:33FILE "26. Henry Mancini - Toccata and Fugue in D Minor (excerpts).wav" WAVE INDEX 01 00:00:00FILE "27. Henry Mancini - Princely Organ Music.wav" WAVE TRACK 27 AUDIO TITLE "Princely Organ Music" PERFORMER "Henry Mancini" REM COMPOSER "" INDEX 01 00:00:00 TRACK 28 AUDIO TITLE "Guitar Strums / The Sweetheart Tree (alternate vocal)" PERFORMER "Henry Mancini" REM COMPOSER "" INDEX 00 00:48:00FILE "28. Henry Mancini - Guitar Strums , The Sweetheart Tree (alternate vocal).wav" WAVE INDEX 01 00:00:00
</div>
</div>
Треклист:
1. Overture (03:42)
2. Push the Buttom, Max! (02:57)
3. The Royal Waltz (01:43)
4. Night, Night Sweet Prince (03:04)
5. They're Off! (01:32)
6. The Sweetheart Tree (choral) (01:59)
7. The Great Race March (A Patriotic Medley) (01:54)
8. He Shouldn't-A, Hadn't-A, Oughtn't-A Swang On Me! (03:12)
9. Music to Become King By (02:39)
10. Cold Finger (02:28)
11. Pie-in-the-Face Polka (02:28)
<div class="sp-wrap">
<div class="sp-head folded">Лог создания рипа</div>
<div class="sp-body">

Exact Audio Copy V1.3 from 2. September 2016

EAC extraction logfile from 26. June 2018, 12:31

Henry Mancini / The Great Race CD 3

Used drive : ATAPI iHBS312 2 Adapter: 1 ID: 1

Read mode : SecureUtilize accurate stream : YesDefeat audio cache : YesMake use of C2 pointers : No

Read offset correction : 6Overread into Lead-In and Lead-Out : NoFill up missing offset samples with silence : YesDelete leading and trailing silent blocks : NoNull samples used in CRC calculations : YesUsed interface : Native Win32 interface for Win NT & 2000Gap handling : Appended to previous track

Used output format : User Defined EncoderSelected bitrate : 1024 kBit/sQuality : HighAdd ID3 tag : NoCommand line compressor : C:\Program Files\Exact Audio Copy\Flac\flac.exeAdditional command line options : -V -8 -T "Genre=%genre%" -T "Artist=%artist%" -T "Title=%title%" -T "Album=%albumtitle%" -T "Date=%year%" -T "Tracknumber=%tracknr%" -T "Comment=%comment%" %source%

TOC of the extracted CD

Track | Start | Length | Start sector | End sector --------------------------------------------------------- 1 | 0:00.00 | 3:40.52 | 0 | 16551 2 | 3:40.52 | 2:57.39 | 16552 | 29865 3 | 6:38.16 | 1:41.16 | 29866 | 37456 4 | 8:19.32 | 3:04.34 | 37457 | 51290 5 | 11:23.66 | 1:32.34 | 51291 | 58224 6 | 12:56.25 | 2:00.59 | 58225 | 67283 7 | 14:57.09 | 1:53.50 | 67284 | 75808 8 | 16:50.59 | 3:11.25 | 75809 | 90158 9 | 20:02.09 | 2:37.62 | 90159 | 101995 10 | 22:39.71 | 2:29.05 | 101996 | 113175 11 | 25:09.01 | 2:26.49 | 113176 | 124174

Track 1

Filename F:\torrent\Great Race_Henry Mancini 3 CD\CD 3\score\01. Henry Mancini - Overture.wav

Pre-gap length 0:00:02.00

Peak level 63.4 % Extraction speed 5.8 X Track quality 100.0 % Test CRC D89C6EF4 Copy CRC D89C6EF4 Accurately ripped (confidence 10) [259AAC01] (AR v2) Copy OK

Track 2

Filename F:\torrent\Great Race_Henry Mancini 3 CD\CD 3\score\02. Henry Mancini - Push the Buttom, Max!.wav

Peak level 57.4 % Extraction speed 6.0 X Track quality 100.0 % Test CRC 05FBE132 Copy CRC 05FBE132 Accurately ripped (confidence 10) [0AB2322A] (AR v2) Copy OK

Track 3

Filename F:\torrent\Great Race_Henry Mancini 3 CD\CD 3\score\03. Henry Mancini - The Royal Waltz.wav

Peak level 55.7 % Extraction speed 3.9 X Track quality 99.8 % Test CRC D0BDFE9C Copy CRC D0BDFE9C Accurately ripped (confidence 10) [13251A4F] (AR v2) Copy OK

Track 4

Filename F:\torrent\Great Race_Henry Mancini 3 CD\CD 3\score\04. Henry Mancini - Night, Night Sweet Prince.wav

Peak level 59.0 % Extraction speed 6.6 X Track quality 100.0 % Test CRC B5842A9D Copy CRC B5842A9D Accurately ripped (confidence 10) [E0E89AE9] (AR v2) Copy OK

Track 5

Filename F:\torrent\Great Race_Henry Mancini 3 CD\CD 3\score\05. Henry Mancini - They're Off!.wav

Pre-gap length 0:00:01.19

Peak level 76.5 % Extraction speed 5.9 X Track quality 100.0 % Test CRC F040722E Copy CRC F040722E Accurately ripped (confidence 10) [D4962E44] (AR v2) Copy OK

Track 6

Filename F:\torrent\Great Race_Henry Mancini 3 CD\CD 3\score\06. Henry Mancini - The Sweetheart Tree (choral).wav

Peak level 76.9 % Extraction speed 6.4 X Track quality 100.0 % Test CRC FB2BE1DF Copy CRC FB2BE1DF Accurately ripped (confidence 10) [DD65EF26] (AR v2) Copy OK

Track 7

Filename F:\torrent\Great Race_Henry Mancini 3 CD\CD 3\score\07. Henry Mancini - The Great Race March (A Patriotic Medley).wav

Pre-gap length 0:00:02.45

Peak level 100.0 % Extraction speed 6.5 X Track quality 100.0 % Test CRC F3246CBA Copy CRC F3246CBA Accurately ripped (confidence 10) [0FE0D2CA] (AR v2) Copy OK

Track 8

Filename F:\torrent\Great Race_Henry Mancini 3 CD\CD 3\score\08. Henry Mancini - He Shouldn't-A, Hadn't-A, Oughtn't-A Swang On Me!.wav

Pre-gap length 0:00:01.51

Peak level 91.2 % Extraction speed 7.5 X Track quality 100.0 % Test CRC BBA7C6C2 Copy CRC BBA7C6C2 Accurately ripped (confidence 10) [0CA0CE89] (AR v2) Copy OK

Track 9

Filename F:\torrent\Great Race_Henry Mancini 3 CD\CD 3\score\09. Henry Mancini - Music to Become King By.wav

Peak level 77.8 % Extraction speed 7.6 X Track quality 100.0 % Test CRC 6D678243 Copy CRC 6D678243 Accurately ripped (confidence 10) [E50961AE] (AR v2) Copy OK

Track 10

Filename F:\torrent\Great Race_Henry Mancini 3 CD\CD 3\score\10. Henry Mancini - Cold Finger.wav

Peak level 69.4 % Extraction speed 5.9 X Track quality 99.9 % Test CRC 873210D4 Copy CRC 873210D4 Accurately ripped (confidence 10) [71EED3CC] (AR v2) Copy OK

Track 11

Filename F:\torrent\Great Race_Henry Mancini 3 CD\CD 3\score\11. Henry Mancini - Pie-in-the-Face Polka.wav

Peak level 99.6 % Extraction speed 7.7 X Track quality 100.0 % Test CRC BAF616CB Copy CRC BAF616CB Accurately ripped (confidence 9) [BD127B39] (AR v2) Copy OK

All tracks accurately ripped

No errors occurred

End of status report

---- CUETools DB Plugin V2.1.6

[CTDB TOCID: fhnkNim45nUfzhu2u2IY_zkvQ1I-] foundSubmit result: fhnkNim45nUfzhu2u2IY_zkvQ1I- has been confirmedTrack | CTDB Status 1 | (19/19) Accurately ripped 2 | (19/19) Accurately ripped 3 | (19/19) Accurately ripped 4 | (19/19) Accurately ripped 5 | (19/19) Accurately ripped 6 | (19/19) Accurately ripped 7 | (19/19) Accurately ripped 8 | (19/19) Accurately ripped 9 | (19/19) Accurately ripped 10 | (19/19) Accurately ripped 11 | (19/19) Accurately ripped

==== Log checksum 6FF0D0A608E25FF9B30E2D6C8D65096601285DFDE6583389AFCCF5D1478A249F ====
REM GENRE SoundtrackREM DATE 2017REM DISCID 7306770BREM COMMENT "ExactAudioCopy v1.3"PERFORMER "Henry Mancini"TITLE "The Great Race CD 3"REM COMPOSER ""FILE "01. Henry Mancini - Overture.wav" WAVE TRACK 01 AUDIO TITLE "Overture" PERFORMER "Henry Mancini" REM COMPOSER "" ISRC USRC19901670 INDEX 01 00:00:00FILE "02. Henry Mancini - Push the Buttom, Max!.wav" WAVE TRACK 02 AUDIO TITLE "Push the Buttom, Max!" PERFORMER "Henry Mancini" REM COMPOSER "" ISRC USRC19901671 INDEX 01 00:00:00FILE "03. Henry Mancini - The Royal Waltz.wav" WAVE TRACK 03 AUDIO TITLE "The Royal Waltz" PERFORMER "Henry Mancini" REM COMPOSER "" ISRC USRC19901676 INDEX 01 00:00:00FILE "04. Henry Mancini - Night, Night Sweet Prince.wav" WAVE TRACK 04 AUDIO TITLE "Night, Night Sweet Prince" PERFORMER "Henry Mancini" REM COMPOSER "" ISRC USRC19901672 INDEX 01 00:00:00 TRACK 05 AUDIO TITLE "They're Off!" PERFORMER "Henry Mancini" REM COMPOSER "" ISRC USRC19901675 INDEX 00 03:03:15FILE "05. Henry Mancini - They're Off!.wav" WAVE INDEX 01 00:00:00FILE "06. Henry Mancini - The Sweetheart Tree (choral).wav" WAVE TRACK 06 AUDIO TITLE "The Sweetheart Tree (choral)" PERFORMER "Henry Mancini" REM COMPOSER "" ISRC USRC19901673 INDEX 01 00:00:00 TRACK 07 AUDIO TITLE "The Great Race March (A Patriotic Medley)" PERFORMER "Henry Mancini" REM COMPOSER "" ISRC USRC19901674 INDEX 00 01:58:14FILE "07. Henry Mancini - The Great Race March (A Patriotic Medley).wav" WAVE INDEX 01 00:00:00 TRACK 08 AUDIO TITLE "He Shouldn't-A, Hadn't-A, Oughtn't-A Swang On Me!" PERFORMER "Henry Mancini" REM COMPOSER "" ISRC USRC19901677 INDEX 00 01:51:74FILE "08. Henry Mancini - He Shouldn't-A, Hadn't-A, Oughtn't-A Swang On Me!.wav" WAVE INDEX 01 00:00:00FILE "09. Henry Mancini - Music to Become King By.wav" WAVE TRACK 09 AUDIO TITLE "Music to Become King By" PERFORMER "Henry Mancini" REM COMPOSER "" ISRC USRC19901678 INDEX 01 00:00:00FILE "10. Henry Mancini - Cold Finger.wav" WAVE TRACK 10 AUDIO TITLE "Cold Finger" PERFORMER "Henry Mancini" REM COMPOSER "" ISRC USRC19901679 INDEX 01 00:00:00FILE "11. Henry Mancini - Pie-in-the-Face Polka.wav" WAVE TRACK 11 AUDIO TITLE "Pie-in-the-Face Polka" PERFORMER "Henry Mancini" REM COMPOSER "" ISRC USRC19901680 INDEX 01 00:00:00
</div>
</div>


Трекер:  [ 26-Июн-2018 14:36 ]

  

Скачать .torrent

Размер .torrent файла 22 KB


Размер: 776 MB
Хэш (hash) релиза: e9cc976745da1c7b1ac6a02641d27d5ba329013a

Торренты, похожие на Большие гонки The Great Race скачать торрент

Форум Название Автор Размер S L Добавлен
Саундтреки к фильмам и мультфильмам (mp3) ·· (Score) Большие Гонки / The Great Race (by Henry Mancini) - 2015 (1965), MP3, 320 kbps Galfimbul 7812385375 MB 0 0 1425995322

16:48

10-Мар-15

Саундтреки к фильмам и мультфильмам (lossless) ·· (Score) Большие Гонки / The Great Race (by Henry Mancini) - 2015 (1965), FLAC (tracks), lossless Galfimbul 186430159178 MB 0 0 1425993583

16:19

10-Мар-15

Саундтреки к фильмам и мультфильмам (mp3) ·· (Soundtrack) The Great Race / Большие Гонки- 1965, Henry Mancini, MP3, 320 kbps Mos 5325778451 MB 0 0 1292268164

22:22

13-Дек-10

Еще никто не оставлял запись к записи скачать торрент Большие гонки The Great Race . Будь первым!

!Обратная связь