padmaavat 720p | The Robert Cray Band - 4 Nights of 40 Years Live. | spinning silver excerpt

Скачать через торрент музыку бесплатно без регистрации torrent

Статистика раздачи
Размер:  211 MB   |    Зарегистрирован:  23 дня   |    .torrent скачан:  18 раз   |   
Раздают:  1  
   
загрузка...
 
Автор Сообщение

Galfimbul

avatar Galfimbul




Goblin - La Via Della Droga 1977 - 1998

Жанр: Soundtrack, Art Rock, Progressive Rock, Ambient, Experimental
Носитель: CD (Album, Remastered )
Страна-производитель диска (релиза): Italy
Год издания оригинала: 1998
Издатель (лейбл): Cinevox
Номер по каталогу: CD MDF 319
Страна исполнителя (группы) : Italy
Дата / место записи: 1977

Аудио кодек: FLAC (*.flac)
Тип рипа: (tracks + .cue)
Битрейт аудио: lossless
Наличие сканов в содержимом раздачи: front & back
Продолжительность: 35:24
Источник (релизер): FulciLives from what.cd

Трэклист:
1 La Via Della Droga (Seq.1 - Main Titles) 2:04
2 La Via Della Droga (Seq.2) 1:39
3 La Via Della Droga (Seq.3) 2:03
4 La Via Della Droga (Seq.4) 2:24
5 La Via Della Droga (Seq.5) 4:36
6 La Via Della Droga (Seq.6) 2:52
7 La Via Della Droga (Seq.7) 1:06
8 La Via Della Droga (Seq.8) 1:40
9 La Via Della Droga (Seq.9) 2:31
10 La Via Della Droga (Seq.10) 3:06
11 La Via Della Droga (Seq.11) 1:36
12 La Via Della Droga (Seq.12) 3:08
13 La Via Della Droga (Seq.13 - Finale) 6:30
<div class="sp-wrap">
<div class="sp-head folded">Лог создания рипа</div>
<div class="sp-body">

Exact Audio Copy V0.99 prebeta 5 from 4. May 2009

EAC extraction logfile from 13. August 2009, 16:38

Goblin / La Via Della Droga

Used drive : PIONEER DVD-RW DVR-115D Adapter: 0 ID: 0

Read mode : SecureUtilize accurate stream : YesDefeat audio cache : YesMake use of C2 pointers : No

Read offset correction : 48Overread into Lead-In and Lead-Out : NoFill up missing offset samples with silence : YesDelete leading and trailing silent blocks : NoNull samples used in CRC calculations : YesUsed interface : Native Win32 interface for Win NT & 2000Gap handling : Appended to previous track

Used output format : User Defined EncoderSelected bitrate : 1024 kBit/sQuality : HighAdd ID3 tag : NoCommand line compressor : C:\Program Files\Exact Audio Copy\FLAC\FLAC.EXEAdditional command line options : -8 -V -T "ARTIST=%a" -T "TITLE=%t" -T "ALBUM=%g" -T "DATE=%y" -T "TRACKNUMBER=%n" -T "GENRE=%m" -T "COMMENT=%e" %s -o %d

TOC of the extracted CD

Track | Start | Length | Start sector | End sector --------------------------------------------------------- 1 | 0:00.00 | 2:08.56 | 0 | 9655 2 | 2:08.56 | 2:02.59 | 9656 | 18864 3 | 4:11.40 | 2:05.72 | 18865 | 28311 4 | 6:17.37 | 2:25.33 | 28312 | 39219 5 | 8:42.70 | 4:39.17 | 39220 | 60161 6 | 13:22.12 | 2:52.48 | 60162 | 73109 7 | 16:14.60 | 1:08.12 | 73110 | 78221 8 | 17:22.72 | 1:44.13 | 78222 | 86034 9 | 19:07.10 | 2:30.24 | 86035 | 97308 10 | 21:37.34 | 3:16.28 | 97309 | 112036 11 | 24:53.62 | 1:35.59 | 112037 | 119220 12 | 26:29.46 | 2:20.67 | 119221 | 129787 13 | 28:50.38 | 6:33.65 | 129788 | 159327

Track 1

Filename C:\La Via Della Droga (1977) - Goblin\01 - LaVia della droga (seq1 - Main Titles).wav

Pre-gap length 0:00:02.00

Peak level 70.3 % Track quality 100.0 % Test CRC 1DC132A9 Copy CRC 1DC132A9 Accurately ripped (confidence 2) [638E29AF] Copy OK

Track 2

Filename C:\La Via Della Droga (1977) - Goblin\02 - LaVia della droga (seq2).wav

Pre-gap length 0:00:02.45

Peak level 72.4 % Track quality 100.0 % Test CRC 4E64155B Copy CRC 4E64155B Accurately ripped (confidence 2) [2F4F55F8] Copy OK

Track 3

Filename C:\La Via Della Droga (1977) - Goblin\03 - LaVia della droga (seq3).wav

Pre-gap length 0:00:02.45

Peak level 61.0 % Track quality 100.0 % Test CRC E63768F3 Copy CRC E63768F3 Accurately ripped (confidence 2) [9AAC5163] Copy OK

Track 4

Filename C:\La Via Della Droga (1977) - Goblin\04 - LaVia della droga (seq4).wav

Pre-gap length 0:00:02.45

Peak level 57.1 % Track quality 99.9 % Test CRC 2C633329 Copy CRC 2C633329 Accurately ripped (confidence 2) [CF8D4E9C] Copy OK

Track 5

Filename C:\La Via Della Droga (1977) - Goblin\05 - LaVia della droga (seq5).wav

Pre-gap length 0:00:02.45

Peak level 69.0 % Track quality 100.0 % Test CRC A9DC006A Copy CRC A9DC006A Accurately ripped (confidence 2) [FE14FEA8] Copy OK

Track 6

Filename C:\La Via Della Droga (1977) - Goblin\06 - LaVia della droga (seq6).wav

Pre-gap length 0:00:02.45

Peak level 80.1 % Track quality 100.0 % Test CRC 621D57FA Copy CRC 621D57FA Accurately ripped (confidence 2) [BD0CE153] Copy OK

Track 7

Filename C:\La Via Della Droga (1977) - Goblin\07 - LaVia della droga (seq7).wav

Pre-gap length 0:00:02.45

Peak level 71.9 % Track quality 100.0 % Test CRC A2DCBA93 Copy CRC A2DCBA93 Accurately ripped (confidence 2) [4539DE3A] Copy OK

Track 8

Filename C:\La Via Della Droga (1977) - Goblin\08 - LaVia della droga (seq8).wav

Pre-gap length 0:00:02.45

Peak level 59.1 % Track quality 100.0 % Test CRC 20E6CD22 Copy CRC 20E6CD22 Accurately ripped (confidence 2) [A13D21A3] Copy OK

Track 9

Filename C:\La Via Della Droga (1977) - Goblin\09 - LaVia della droga (seq9).wav

Pre-gap length 0:00:02.45

Peak level 100.0 % Track quality 100.0 % Test CRC 92E1E4ED Copy CRC 92E1E4ED Accurately ripped (confidence 2) [02AADF3A] Copy OK

Track 10

Filename C:\La Via Della Droga (1977) - Goblin\10 - LaVia della droga (seq10).wav

Pre-gap length 0:00:02.45

Peak level 69.5 % Track quality 100.0 % Test CRC 357DF06B Copy CRC 357DF06B Accurately ripped (confidence 2) [05A794F4] Copy OK

Track 11

Filename C:\La Via Della Droga (1977) - Goblin\11 - LaVia della droga (seq11).wav

Pre-gap length 0:00:02.45

Peak level 100.0 % Track quality 100.0 % Test CRC 2B1FF2AD Copy CRC 2B1FF2AD Accurately ripped (confidence 2) [D12DE30D] Copy OK

Track 12

Filename C:\La Via Della Droga (1977) - Goblin\12 - LaVia della droga (seq12).wav

Pre-gap length 0:00:02.45

Peak level 74.8 % Track quality 100.0 % Test CRC A6063A4E Copy CRC A6063A4E Accurately ripped (confidence 2) [EAAB85D7] Copy OK

Track 13

Filename C:\La Via Della Droga (1977) - Goblin\13 - LaVia della droga (seq13 - Finale).wav

Pre-gap length 0:00:02.45

Peak level 76.6 % Track quality 100.0 % Test CRC A643558E Copy CRC A643558E Accurately ripped (confidence 2) [FA2C1B70] Copy OK

All tracks accurately ripped

No errors occurred

End of status report
REM GENRE Soundtrack
REM DATE 1998
REM DISCID AD084C0D
REM COMMENT "ExactAudioCopy v0.99pb5"
PERFORMER "Goblin"
TITLE "La Via Della Droga 1977"
FILE "01 - LaVia della droga (seq1 - Main Titles).wav" WAVE
TRACK 01 AUDIO
TITLE "LaVia della droga (seq1 - Main Titles)"
PERFORMER "Goblin"
FLAGS DCP
INDEX 01 00:00:00
TRACK 02 AUDIO
TITLE "LaVia della droga (seq2)"
PERFORMER "Goblin"
FLAGS DCP
INDEX 00 02:06:11
FILE "02 - LaVia della droga (seq2).wav" WAVE
INDEX 01 00:00:00
TRACK 03 AUDIO
TITLE "LaVia della droga (seq3)"
PERFORMER "Goblin"
FLAGS DCP
INDEX 00 02:00:14
FILE "03 - LaVia della droga (seq3).wav" WAVE
INDEX 01 00:00:00
TRACK 04 AUDIO
TITLE "LaVia della droga (seq4)"
PERFORMER "Goblin"
FLAGS DCP
INDEX 00 02:03:27
FILE "04 - LaVia della droga (seq4).wav" WAVE
INDEX 01 00:00:00
TRACK 05 AUDIO
TITLE "LaVia della droga (seq5)"
PERFORMER "Goblin"
FLAGS DCP
INDEX 00 02:22:63
FILE "05 - LaVia della droga (seq5).wav" WAVE
INDEX 01 00:00:00
TRACK 06 AUDIO
TITLE "LaVia della droga (seq6)"
PERFORMER "Goblin"
FLAGS DCP
INDEX 00 04:36:47
FILE "06 - LaVia della droga (seq6).wav" WAVE
INDEX 01 00:00:00
TRACK 07 AUDIO
TITLE "LaVia della droga (seq7)"
PERFORMER "Goblin"
FLAGS DCP
INDEX 00 02:50:03
FILE "07 - LaVia della droga (seq7).wav" WAVE
INDEX 01 00:00:00
TRACK 08 AUDIO
TITLE "LaVia della droga (seq8)"
PERFORMER "Goblin"
FLAGS DCP
INDEX 00 01:05:42
FILE "08 - LaVia della droga (seq8).wav" WAVE
INDEX 01 00:00:00
TRACK 09 AUDIO
TITLE "LaVia della droga (seq9)"
PERFORMER "Goblin"
FLAGS DCP
INDEX 00 01:41:43
FILE "09 - LaVia della droga (seq9).wav" WAVE
INDEX 01 00:00:00
TRACK 10 AUDIO
TITLE "LaVia della droga (seq10)"
PERFORMER "Goblin"
FLAGS DCP
INDEX 00 02:27:54
FILE "10 - LaVia della droga (seq10).wav" WAVE
INDEX 01 00:00:00
TRACK 11 AUDIO
TITLE "LaVia della droga (seq11)"
PERFORMER "Goblin"
FLAGS DCP
INDEX 00 03:13:58
FILE "11 - LaVia della droga (seq11).wav" WAVE
INDEX 01 00:00:00
TRACK 12 AUDIO
TITLE "LaVia della droga (seq12)"
PERFORMER "Goblin"
FLAGS DCP
INDEX 00 01:33:14
FILE "12 - LaVia della droga (seq12).wav" WAVE
INDEX 01 00:00:00
TRACK 13 AUDIO
TITLE "LaVia della droga (seq13 - Finale)"
PERFORMER "Goblin"
FLAGS DCP
INDEX 00 02:18:22
FILE "13 - LaVia della droga (seq13 - Finale).wav" WAVE
INDEX 01 00:00:00
-----------------------

DON'T MODIFY THIS FILE

-----------------------

PERFORMER: auCDtect Task Manager, ver. 1.6.0 RC1 build 1.6.0.1Copyright (c) 2008-2010 y-soft. All rights reservedhttp://y-soft.org

ANALYZER: auCDtect: CD records authenticity detector, version 0.8.2Copyright (c) 2004 Oleg Berngardt. All rights reserved.Copyright (c) 2004 Alexander Djourik. All rights reserved.

FILE: 13 - LaVia della droga (seq13 - Finale).flac Size: 45695575 Hash: C8FB93E4A6171D50B7B3C0D41E952622 Accuracy: -m0 Conclusion: CDDA 100% Signature: 8B1C9503D724A1661DF0E71BF35301C95C2A17E3FILE: 12 - LaVia della droga (seq12).flac Size: 11216747 Hash: 735E17111F8D50D5D890E7C9FD9707F4 Accuracy: -m0 Conclusion: CDDA 100% Signature: 73BFA63D2962DCBB5F16BC0403DDB3FE546526C5FILE: 11 - LaVia della droga (seq11).flac Size: 10752935 Hash: 7C52D3C7A43F6E47A8CA3CB4EA688033 Accuracy: -m0 Conclusion: CDDA 100% Signature: C1D7E977C70C7DCA64B9C8B6AE78B4E6FF3EA2F6FILE: 10 - LaVia della droga (seq10).flac Size: 19119202 Hash: AE300BD47A8BED729D8D2CCDD32FEAE2 Accuracy: -m0 Conclusion: CDDA 100% Signature: 1D9B634CD90AE89435E4DCA4C312CF726913A11AFILE: 09 - LaVia della droga (seq9).flac Size: 15223094 Hash: BFC551ED5C2259910A0055F8808C68C8 Accuracy: -m0 Conclusion: CDDA 100% Signature: 218E213509D8A74013ADCF6E8036B8A769EA528CFILE: 08 - LaVia della droga (seq8).flac Size: 10434367 Hash: C82CAC6E533ADE0F743883776F0AC2D5 Accuracy: -m0 Conclusion: CDDA 100% Signature: EB6FC50E71F514D88FB02538E8ACDCA7673DD112FILE: 07 - LaVia della droga (seq7).flac Size: 5465982 Hash: 1BA4DDDAFBC7A453D3696004194063F3 Accuracy: -m0 Conclusion: CDDA 100% Signature: 7B506A174E291A1622C2CBC29956FFC7017D104DFILE: 06 - LaVia della droga (seq6).flac Size: 14655289 Hash: F026E4D8D69361DC8500DD6CC57DE24C Accuracy: -m0 Conclusion: CDDA 100% Signature: A17C4DE3BCFAA2CAB1CEE9BF26E9BA0418BAC5A0FILE: 05 - LaVia della droga (seq5).flac Size: 25649691 Hash: FEC8A88F51F3694086CAF007843E6D3B Accuracy: -m0 Conclusion: CDDA 100% Signature: 23C27BF966D806CD4AB1808A08F865426EDACC40FILE: 04 - LaVia della droga (seq4).flac Size: 13404377 Hash: A5E7710733B2BA766F94114BDF18B9BD Accuracy: -m0 Conclusion: CDDA 100% Signature: 3AB9B17D93DEB28D6C038E70B22CD8259CE1BCFDFILE: 03 - LaVia della droga (seq3).flac Size: 13200877 Hash: FD83383A62836D843FFB834A63950343 Accuracy: -m0 Conclusion: CDDA 100% Signature: ACBA654C944D00DA19542609714C40A011B15F1EFILE: 02 - LaVia della droga (seq2).flac Size: 11383169 Hash: 412C9A3E06E8D8F12392BC2BFB06DD3E Accuracy: -m0 Conclusion: CDDA 100% Signature: C9F7DD5EEDB750F48C5E2B52FB78D8529DB3F865FILE: 01 - LaVia della droga (seq1 - Main Titles).flac Size: 13654048 Hash: B5E8CA427BA2FB07EA9E2182A910F997 Accuracy: -m0 Conclusion: CDDA 99% Signature: BAB66B21F9B5F4E8457322175E3F207D2EDBED81
[CUETools log; Date: 6/26/2018 11:26:12 AM; Version: 2.1.5][CTDB TOCID: p.BYlQf89i_20KHFDhxWyDRu4HM-] found.Track | CTDB Status 1 | (5/5) Accurately ripped 2 | (5/5) Accurately ripped 3 | (5/5) Accurately ripped 4 | (5/5) Accurately ripped 5 | (5/5) Accurately ripped 6 | (5/5) Accurately ripped 7 | (5/5) Accurately ripped 8 | (5/5) Accurately ripped 9 | (5/5) Accurately ripped 10 | (5/5) Accurately ripped 11 | (5/5) Accurately ripped 12 | (5/5) Accurately ripped 13 | (5/5) Accurately ripped[AccurateRip ID: 000f6e41-009bd2ea-ad084c0d] found.Track [ CRC | V2 ] Status 01 [638e29af|75ca3179] (4+0/4) Accurately ripped 02 [2f4f55f8|9a3c9480] (4+0/4) Accurately ripped 03 [9aac5163|dbb38a9a] (4+0/4) Accurately ripped 04 [cf8d4e9c|5dec951a] (4+0/4) Accurately ripped 05 [fe14fea8|799b4961] (4+0/4) Accurately ripped 06 [bd0ce153|fe210084] (4+0/4) Accurately ripped 07 [4539de3a|1e49fe16] (4+0/4) Accurately ripped 08 [a13d21a3|abcff42e] (4+0/4) Accurately ripped 09 [02aadf3a|de141e24] (4+0/4) Accurately ripped 10 [05a794f4|b9f8341f] (4+0/4) Accurately ripped 11 [d12de30d|209428a4] (4+0/4) Accurately ripped 12 [eaab85d7|f02ebc68] (4+0/4) Accurately ripped 13 [fa2c1b70|4f53dcdf] (4+0/4) Accurately ripped

Track Peak [ CRC32 ] [W/O NULL] [ LOG ] -- 100.0 [B8666774] [B2B8587D] 01 70.3 [1DC132A9] [A896877C] CRC32 02 72.4 [4E64155B] [098A6F6D] CRC32 03 61.0 [E63768F3] [2C64A908] CRC32 04 57.1 [2C633329] [4D0826EA] CRC32 05 69.0 [A9DC006A] [57313210] CRC32 06 80.1 [621D57FA] [6787E28F] CRC32 07 71.9 [A2DCBA93] [BBA8C0B4] CRC32 08 59.1 [20E6CD22] [A7641817] CRC32 09 100.0 [92E1E4ED] [47164201] CRC32 10 69.5 [357DF06B] [2423DD32] CRC32 11 100.0 [2B1FF2AD] [B50D2D7D] CRC32 12 74.8 [A6063A4E] [382CE02E] CRC32 13 76.6 [A643558E] [B99C906E] CRC32
foobar2000 1.3.10 / Замер динамического диапазона (DR) 1.1.1Дата отчёта: 2018-06-26 11:26:38

--------------------------------------------------------------------------------Анализ: Goblin / La Via Della Droga--------------------------------------------------------------------------------

DR Пики RMS Продолжительность трека--------------------------------------------------------------------------------DR10 -3.06 дБ -14.76 дБ 2:09 01-LaVia della droga (seq1 - Main Titles)DR12 -2.79 дБ -17.52 дБ 2:03 02-LaVia della droga (seq2)DR12 -4.29 дБ -18.90 дБ 2:06 03-LaVia della droga (seq3)DR10 -4.86 дБ -17.16 дБ 2:25 04-LaVia della droga (seq4)DR11 -3.22 дБ -17.64 дБ 4:39 05-LaVia della droga (seq5)DR13 -1.92 дБ -19.10 дБ 2:53 06-LaVia della droga (seq6)DR12 -2.86 дБ -19.20 дБ 1:08 07-LaVia della droga (seq7)DR11 -4.56 дБ -19.17 дБ 1:44 08-LaVia della droga (seq8)DR12 0.00 дБ -15.64 дБ 2:30 09-LaVia della droga (seq9)DR11 -3.16 дБ -15.87 дБ 3:16 10-LaVia della droga (seq10)DR11 0.00 дБ -14.59 дБ 1:36 11-LaVia della droga (seq11)DR12 -2.52 дБ -18.78 дБ 2:21 12-LaVia della droga (seq12)DR11 -2.31 дБ -15.29 дБ 6:34 13-LaVia della droga (seq13 - Finale)--------------------------------------------------------------------------------

Количество треков: 13Реальные значения DR: DR11

Частота: 44100 ГцКаналов: 2Разрядность: 16Битрейт: 922 кбит/сКодек: FLAC================================================================================
</div>
</div>
Composed By, Arranged By – Goblin
Claudio Simonetti, Agostino Marangolo, Fabio Pignatelli, Massimo Morante

Если нет сидов - пришлите мне ЛС

Трекер:  [ 26-Июн-2018 12:36 ]

  

Скачать .torrent

Размер .torrent файла 18 KB


Размер: 211 MB
Хэш (hash) релиза: c4ac9ee73743f3be60c117cd790f65ce0c389265

Еще никто не оставлял запись к записи скачать торрент . Будь первым!

!Обратная связь