11 Eyes | Model Squad | Oregairu Season 2

Скачать через торрент [VIDEO] Лига справедливости Justice League бесплатно русская версия torrent активатор

Статистика раздачи
Размер:  2.94 GB   |    Зарегистрирован:  2 месяца 26 дней   |    .torrent скачан:  56 раз   |   
Раздают:  1  
   
загрузка...
 
Автор Сообщение

Galfimbul

avatar Galfimbul




Лига справедливости / Justice League

Год выпуска: 2017
Страна: США, Великобритания, Канада
Жанр: фантастика, фэнтези, боевик, приключения
Продолжительность: 02:00:02
Перевод №1: русский Профессиональный (полное дублирование) BD EUR
Перевод №2: украинский Профессиональный (полное дублирование) iTunes
Перевод №3: русский Авторский (одноголосый, закадровый) Юрий Живов
Оригинальная дорожка: Есть Английская
Субтитры: русские (форсированные), (полные), украинские (форсированные), английские (форс. хардсаб), (полные)
Режиссер: Зак Снайдер / Zack Snyder
В ролях: Бен Аффлек, Генри Кавилл, Эми Адамс, Галь Гадот, Эзра Миллер, Джейсон Момоа , Рэй Фишер, Джереми Айронс, Дайан Лэйн, Конни Нильсен, Дж.К. Симмонс, Киран Хайндс и другие .
Описание: Брюс Уэйн, вдохновленный самопожертвованием Супермена, вновь обретает веру в человечество. Он заручается поддержкой новой союзницы, Дианы Принс, чтобы сразиться с еще более могущественным противником. Бэтмен и Чудо-Женщина быстро набирают команду сверхлюдей для борьбы с пробудившейся угрозой. Но несмотря на уникальный состав отряда супергероев - Бэтмен, Чудо-Женщина, Аквамэн, Киборг и Флэш, - быть может, спасать планету от вторжения катастрофических масштабов уже слишком поздно .
Релиз группы

Качество: BDRip / рип с Blu-ray disc 1080p [EUR]
Формат: MP4
Видео кодек: H.264
Аудио кодек: AAC
Видео: 1280x720 AR:1.78 3000 kbps 23.976 fps
Аудио №1: [Russian] 2ch 48 kHz 128 kbps - [Dub] Профессиональный (полное дублирование) BD EUR
Аудио №2: [Ukrainian] 2ch 48 kHz 128 kbps - [Dub] Профессиональный (полное дублирование) iTunes
Аудио №3: [Russian] 2ch 48 kHz 128 kbps - [VO] Авторский (одноголосый, закадровый) Юрий Живов
Аудио №4: [English] 2ch 48 kHz 128 kbps - [Original]
avs [info]: 1280x720p 1:1 @ 24000/1001 fps (cfr)
x264 [info]: using SAR=1/1
x264 [info]: using cpu capabilities: MMX2 SSE2Fast SSSE3 SSE4.2 AVX FMA3 BMI2 AVX2
x264 [info]: profile High, level 4.1

x264 [info]: frame I:1428 Avg QP:19.81 size: 93183
x264 [info]: frame P:43548 Avg QP:23.88 size: 25766
x264 [info]: frame B:127714 Avg QP:23.61 size: 11212
x264 [info]: consecutive B-frames: 4.3% 3.9% 15.3% 18.6% 15.3% 38.4% 3.1% 1.0%
x264 [info]: mb I I16..4: 6.7% 81.3% 12.0%
x264 [info]: mb P I16..4: 3.0% 11.7% 1.1% P16..4: 46.0% 18.4% 9.3% 0.0% 0.0% skip:10.5%
x264 [info]: mb B I16..4: 0.1% 1.0% 0.1% B16..8: 42.1% 7.9% 1.7% direct: 5.2% skip:41.8% L0:45.6% L1:48.1% BI: 6.2%
x264 [info]: 8x8 transform intra:76.2% inter:68.0%
x264 [info]: direct mvs spatial:96.7% temporal:3.3%
x264 [info]: coded y,uvDC,uvAC intra: 73.5% 69.8% 35.0% inter: 22.3% 18.9% 3.8%
x264 [info]: i16 v,h,dc,p: 23% 19% 10% 49%
x264 [info]: i8 v,h,dc,ddl,ddr,vr,hd,vl,hu: 6% 6% 6% 11% 17% 14% 16% 11% 12%
x264 [info]: i4 v,h,dc,ddl,ddr,vr,hd,vl,hu: 7% 5% 3% 10% 18% 15% 16% 12% 14%
x264 [info]: i8c dc,h,v,p: 37% 25% 17% 21%
x264 [info]: Weighted P-Frames: Y:18.1% UV:14.0%
x264 [info]: ref P L0: 48.6% 11.3% 18.6% 6.3% 4.9% 3.4% 3.1% 1.7% 1.7% 0.4% 0.1%
x264 [info]: ref B L0: 76.4% 11.1% 5.3% 2.6% 1.8% 1.5% 0.9% 0.3%
x264 [info]: ref B L1: 94.7% 5.3%
x264 [info]: kb/s:2984.45

encoded 172690 frames, 10.18 fps, 2984.45 kb/s
GeneralComplete name : K:\Torrents\Justice League.2017.BDRip.x264.1280x.rip by Frost O.S.mp4Format : MPEG-4Format profile : 3GPP Release 6 GeneralCodec ID : 3gg6 (isom/3gg6/mp42)File size : 2.94 GiBDuration : 2 h 0 minOverall bit rate mode : VariableOverall bit rate : 3 506 kb/sEncoded date : UTC 2018-06-25 15:56:52Tagged date : UTC 2018-06-25 15:56:52Writing application : Yamb 2.1.0.0

VideoID : 1Format : AVCFormat/Info : Advanced Video CodecFormat profile : [email protected] settings : CABAC / 9 Ref FramesFormat settings, CABAC : YesFormat settings, ReFrames : 9 framesCodec ID : avc1Codec ID/Info : Advanced Video CodingDuration : 2 h 0 minBit rate : 3 000 kb/sMaximum bit rate : 29.9 Mb/sWidth : 1 280 pixelsHeight : 720 pixelsDisplay aspect ratio : 16:9Frame rate mode : ConstantFrame rate : 23.976 (24000/1001) FPSColor space : YUVChroma subsampling : 4:2:0Bit depth : 8 bitsScan type : ProgressiveBits/(Pixel*Frame) : 0.136Stream size : 2.50 GiB (85%)Writing library : x264 core 152 r2851 ba24899Encoding settings : cabac=1 / ref=9 / deblock=1:-2:-1 / analyse=0x3:0x113 / me=umh / subme=10 / psy=1 / psy_rd=1.00:0.00 / mixed_ref=1 / me_range=32 / chroma_me=1 / trellis=2 / 8x8dct=1 / cqm=0 / deadzone=21,11 / fast_pskip=0 / chroma_qp_offset=-2 / threads=6 / lookahead_threads=1 / sliced_threads=0 / nr=0 / decimate=0 / interlaced=0 / bluray_compat=0 / constrained_intra=0 / bframes=7 / b_pyramid=2 / b_adapt=2 / b_bias=0 / direct=3 / weightb=1 / open_gop=0 / weightp=2 / keyint=250 / keyint_min=23 / scenecut=40 / intra_refresh=0 / rc=2pass / mbtree=0 / bitrate=3000 / ratetol=1.0 / qcomp=0.60 / qpmin=0 / qpmax=69 / qpstep=4 / cplxblur=20.0 / qblur=0.5 / ip_ratio=1.40 / pb_ratio=1.15 / aq=3:0.90 / zones=159163,172689,q=35Encoded date : UTC 2018-06-24 17:43:00Tagged date : UTC 2018-06-25 15:57:39Color range : LimitedColor primaries : BT.709Transfer characteristics : BT.709Matrix coefficients : BT.709

Audio #1ID : 2Format : AACFormat/Info : Advanced Audio CodecFormat profile : LCCodec ID : mp4a-40-2Duration : 2 h 0 minBit rate mode : VariableBit rate : 128 kb/sMaximum bit rate : 135 kb/sChannel(s) : 2 channelsChannel positions : Front: L RSampling rate : 48.0 kHzFrame rate : 46.875 FPS (1024 SPF)Compression mode : LossyStream size : 110 MiB (4%)Title : Russian / Dub, BD EUREncoded date : UTC 2018-06-25 15:38:38Tagged date : UTC 2018-06-25 15:57:39

Audio #2ID : 3Format : AACFormat/Info : Advanced Audio CodecFormat profile : LCCodec ID : mp4a-40-2Duration : 2 h 0 minBit rate mode : VariableBit rate : 128 kb/sMaximum bit rate : 135 kb/sChannel(s) : 2 channelsChannel positions : Front: L RSampling rate : 48.0 kHzFrame rate : 46.875 FPS (1024 SPF)Compression mode : LossyStream size : 110 MiB (4%)Title : Ukrainian / Dub, iTunesEncoded date : UTC 2018-06-25 15:46:28Tagged date : UTC 2018-06-25 15:57:39

Audio #3ID : 4Format : AACFormat/Info : Advanced Audio CodecFormat profile : LCCodec ID : mp4a-40-2Duration : 2 h 0 minBit rate mode : VariableBit rate : 128 kb/sMaximum bit rate : 140 kb/sChannel(s) : 2 channelsChannel positions : Front: L RSampling rate : 48.0 kHzFrame rate : 46.875 FPS (1024 SPF)Compression mode : LossyStream size : 110 MiB (4%)Title : Russian / VO, ZhuvovEncoded date : UTC 2018-06-25 15:49:37Tagged date : UTC 2018-06-25 15:57:39

Audio #4ID : 5Format : AACFormat/Info : Advanced Audio CodecFormat profile : LCCodec ID : mp4a-40-2Duration : 2 h 0 minBit rate mode : VariableBit rate : 128 kb/sMaximum bit rate : 134 kb/sChannel(s) : 2 channelsChannel positions : Front: L RSampling rate : 48.0 kHzFrame rate : 46.875 FPS (1024 SPF)Compression mode : LossyStream size : 110 MiB (4%)Title : English / OriginalEncoded date : UTC 2018-06-25 15:42:24Tagged date : UTC 2018-06-25 15:57:39

Text #1ID : 6Format : Timed TextCodec ID : tx3gDuration : 1 h 33 minBit rate mode : VariableBit rate : 1 b/sStream size : 939 Bytes (0%)Title : Russian / ForcedForced : NoEncoded date : UTC 2018-06-25 15:57:39Tagged date : UTC 2018-06-25 15:57:39

Text #2ID : 7Format : Timed TextCodec ID : tx3gDuration : 1 h 59 minBit rate mode : VariableBit rate : 76 b/sStream size : 66.7 KiB (0%)Title : Russian / FullForced : NoEncoded date : UTC 2018-06-25 15:57:39Tagged date : UTC 2018-06-25 15:57:39

Text #3ID : 8Format : Timed TextCodec ID : tx3gDuration : 1 h 40 minBit rate mode : VariableBit rate : 2 b/sStream size : 1.33 KiB (0%)Title : Ukrainian / ForcedForced : NoEncoded date : UTC 2018-06-25 15:57:39Tagged date : UTC 2018-06-25 15:57:39

Text #4ID : 9Format : Timed TextCodec ID : tx3gDuration : 1 h 50 minBit rate mode : VariableBit rate : 49 b/sStream size : 39.8 KiB (0%)Title : English / FullForced : NoEncoded date : UTC 2018-06-25 15:57:39Tagged date : UTC 2018-06-25 15:57:39


Трекер:  [ 25-Июн-2018 19:36 ]

  

Скачать .torrent

Размер .torrent файла 15 KB


Размер: 2.94 GB
Хэш (hash) релиза: 1dd855dc856e6aaec8d376a444734325fa1599c4

Еще никто не оставлял запись к записи скачать торрент [VIDEO] Лига справедливости Justice League . Будь первым!

!Обратная связь