Man Who Sets the Table | Literatura e Ficção | Leave a comment

Скачать через торрент Тайны города Эн Серии: 1-8 из 8 Фильм бесплатно в хорошем качестве torrent

Скачивайте на UnionPeer.org фильмы через торрент без регистрации. Новинки кино в хорошем качестве через торрент. На UnionPeer.org можно скачать через торрент фильмы 2014 и 2015 годов. Самые новые фильмы.

Скачать торрент Тайны города Эн Серии: 1-8 из 8 бесплатно через .torrent фильм мультфильм сериал

Статистика раздачи
Размер:  5.31 GB   |    Зарегистрирован:  22 дня   |    .torrent скачан:  74 раза   |   
Раздают:  1  
   
загрузка...
 
Автор Сообщение

Galfimbul

avatar Galfimbul


Тайны города Эн

Год выпуска: 2015
Производство: Марс Медиа
Жанр: детектив, драма
Продолжительность: ~00:50:00 серия
Субтитры: нет

Режиссёр: Николай Хомерики

В ролях: Светлана Колпакова, Дмитрий Поднозов, Кирилл Гребенщиков, Наталья Рогожкина, Анна Чиповская, Ольга Демидова, Наталья Батрак, Сергей Удовик, Игорь Хрипунов, Стася Хомерики-Гранковская, Владимир Селезнёв, Станислав Рядинский, Александр Васильев, Анатолий Друзенко, Павел Григорьев, Борис Войцеховский, Марина Куделинская, Никита Васильев

Описание: При въезде в маленький тихий городок находят тело подростка Алика. Неподалеку в овраге — машину ехавшего из Питера некоего Шацкого. Первоначальная версия ДТП отметается, когда у погибшего в легких обнаруживают воду. Но если его убили, то кто? Молодой следователь Анна подозревает чужака, ее начальник Михаил Сергеевич считает, что убийца — кто-то из своих. В ходе расследования, к которому, желая себя оправдать, подключается и Шацкий, выясняется, что у многих в этом городке были мотивы для убийства.

Реклама: Нет.

Кинопоиск
Все раздачи сериала
Sample

Качество: SATRip - 25Kuzmich
Формат: AVI
Видео кодек: XviD
Аудио кодек: MP3
Видео: 720x400 (1.80:1), 25 fps, XviD build 73 ~1650 kbps avg, 0.229 bit/pixel
Аудио: 48.0 kHz, MP3, 2/0 (L,R) ch, ~ 192 kbps
General
Complete name : D:\Tainy.goroda.EN.XviD.SATRip.25Kuzmich\Tainy.goroda.en.(01.seriya.iz.08).XviD.SATRip.25Kuzmich.avi
Format : AVI
Format/Info : Audio Video Interleave
File size : 673 MiB
Duration : 50 min 46 s
Overall bit rate : 1 852 kb/s
Writing application : VirtualDubMod 1.5.10.3 | www.virtualdub-fr.org || (build 2550/release)
Writing library : VirtualDubMod build 2550/release

Video
ID : 0
Format : MPEG-4 Visual
Format profile : Advanced [email protected]
Format settings : BVOP1 / Custom Matrix
Format settings, BVOP : 1
Format settings, QPel : No
Format settings, GMC : No warppoints
Format settings, Matrix : Custom
Codec ID : XVID
Codec ID/Hint : XviD
Duration : 50 min 46 s
Bit rate : 1 650 kb/s
Width : 720 pixels
Height : 400 pixels
Display aspect ratio : 16:9
Frame rate : 25.000 FPS
Color space : YUV
Chroma subsampling : 4:2:0
Bit depth : 8 bits
Scan type : Progressive
Compression mode : Lossy
Bits/(Pixel*Frame) : 0.229
Stream size : 599 MiB (89%)
Writing library : XviD 1.2.1 (UTC 2008-12-04)

Audio
ID : 1
Format : MPEG Audio
Format version : Version 1
Format profile : Layer 3
Format settings : Joint stereo
Codec ID : 55
Codec ID/Hint : MP3
Duration : 50 min 46 s
Bit rate mode : Constant
Bit rate : 192 kb/s
Channel(s) : 2 channels
Sampling rate : 48.0 kHz
Frame rate : 41.667 FPS (1152 SPF)
Compression mode : Lossy
Stream size : 69.7 MiB (10%)
Alignment : Aligned on interleaves
Interleave, duration : 40 ms (1.00 video frame)
Interleave, preload duratio : 504 ms
Writing library : LAME3.99r
Encoding settings : -m j -V 4 -q 0 -lowpass 18.6 -b 192


Трекер:  [ 24-Июн-2018 22:12 ]

  

Скачать .torrent

Размер .torrent файла 27 KB


Размер: 5.31 GB
Хэш (hash) релиза: d422770bbea3c7150e40d7931a15d47727802bb8
Подписка на обновления:

Торренты, похожие на Тайны города Эн Серии: 1-8 из 8 скачать торрент

Форум Название Автор Размер S L Добавлен
Российские сериалы ·%· Тайны города Эн / Серии: 1-8 из 8 (Николай Хомерики) [2015, детектив, драма, WEBRip 1080p] Galfimbul 1494437428613.92 GB 0 0 1530524535

12:42

2-Июл-18

Российские сериалы ·*· Тайны города ЭН / Серии: 1-8 из 8 (Николай Хомерики) [2015,детектив, драма, SATRip-AVC] aleksan55 62105111345.78 GB 0 0 1529912622

10:43

25-Июн-18

Еще никто не оставлял запись к записи скачать торрент Тайны города Эн Серии: 1-8 из 8 . Будь первым!

!Обратная связь