Tail Star | Cracking Windows Phone and BlackBerry Native Development Cross-Platform Mobile Apps | Massa Carrara

Скачать через торрент Саранча Сезон: 1 Фильм бесплатно в хорошем качестве torrent

Скачивайте на UnionPeer.org фильмы через торрент без регистрации. Новинки кино в хорошем качестве через торрент. На UnionPeer.org можно скачать через торрент фильмы 2014 и 2015 годов. Самые новые фильмы.

Скачать торрент Саранча Сезон: 1 бесплатно через .torrent фильм мультфильм сериал

Статистика раздачи
Размер:  2.62 GB   |    Зарегистрирован:  4 месяца 20 дней   |    .torrent скачан:  78 раз   |   
Раздают:  1  
   
загрузка...
 
Автор Сообщение

Galfimbul

avatar Galfimbul


Саранча
> Год выпуска: 2013> Производство: «Sreda»> Жанр: Мелодрама> Продолжительность: ~ 49 мин.> Субтитры: Отсутствуют
> Режиссер: Егор Баранов
> В ролях: Пётр Фёдоров, Паулина Андреева, Дмитрий Шевченко, Екатерина Волкова, Евгения Дмитриева, Максим Пинскер, Алексей Горбунов, Евгений Стычкин, Александр Голубков, Иван Щенин, Андрей Бут, Александр Молочников, Степан Самойленко, Анастасия Акатова, Бесо Гатаев, Валерий Шорохов, Игорь Мулев, Анатолий Антонюк, Сергей Фролов (II), Ольга Оганезова и др.
> Описание: У них не было ничего общего: Артем – простой парень из провинции, работяга и поэт, Лера – столичная штучка, чью жизнь распланировали родители. Но банальный курортный роман оборачивается обжигающей страстью, которая ломает судьбы. И хотя Лера выходит замуж за друга отца, а Артем назло женится на богатой даме постарше, их безумное влечение рушит все барьеры. Жажда плоти невыносима, и для приговоренных друг к другу любовников уже не существует ни правил, ни опасности, ни страха. И когда разрушительная страсть обагряется кровью, они уже не в силах остановиться...



> Релиз группы
> > Семпл > Кино-Театр
> Качество:HDTVRip [Источник HDTV 1080i]> Формат: AVI> Видео кодек: XviD> Аудио кодек: AC3> Видео: 720x400 (1.80:1), 25 fps, XviD build 73 ~1499 kbps avg, 0.21 bit/pixel> Аудио: 48 kHz, AC3 Dolby Digital, 3/2 (L,C,R,l,r) + LFE ch, ~384.00 kbps avg
General
Complete name                       : D:\Саранча\Sarancha.s01e01.2013.HDTVRip.RG.Russkie.serialy.avi
Format                              : AVI
Format/Info                         : Audio Video Interleave
File size                           : 674 MiB
Duration                            : 49mn 47s
Overall bit rate                    : 1 893 Kbps
Writing application                 : VirtualDubMod 1.5.10.3 | www.virtualdub-fr.org || (build 2550/release)
Writing library                     : VirtualDubMod build 2550/release

Video
ID                                  : 0
Format                              : MPEG-4 Visual
Format profile                      : Advanced Simple@L5
Format settings, BVOP               : 2
Format settings, QPel               : No
Format settings, GMC                : No warppoints
Format settings, Matrix             : Custom
Codec ID                            : XVID
Codec ID/Hint                       : XviD
Duration                            : 49mn 47s
Bit rate                            : 1 500 Kbps
Width                               : 720 pixels
Height                              : 400 pixels
Display aspect ratio                : 16:9
Frame rate                          : 25.000 fps
Color space                         : YUV
Chroma subsampling                  : 4:2:0
Bit depth                           : 8 bits
Scan type                           : Progressive
Compression mode                    : Lossy
Bits/(Pixel*Frame)                  : 0.208
Stream size                         : 534 MiB (79%)
Writing library                     : XviD 73

Audio
ID                                  : 1
Format                              : AC-3
Format/Info                         : Audio Coding 3
Mode extension                      : CM (complete main)
Format settings, Endianness         : Big
Codec ID                            : 2000
Duration                            : 49mn 47s
Bit rate mode                       : Constant
Bit rate                            : 384 Kbps
Channel(s)                          : 6 channels
Channel positions                   : Front: L C R, Side: L R, LFE
Sampling rate                       : 48.0 KHz
Bit depth                           : 16 bits
Compression mode                    : Lossy
Stream size                         : 137 MiB (20%)
Alignment                           : Split accross interleaves
Interleave, duration                : 40 ms (1.00 video frame)
Interleave, preload duration        : 500 ms
<div class="sp-wrap">
<div class="sp-head folded">Сравнение
</div>
<div class="sp-body">Сравнение с этой раздачей ...5194380
http://screenshotcomparison.com/comparison/115326/picture:7</div>
</div>

Трекер:  [ 24-Июн-2018 15:42 ]

  

Скачать .torrent

Размер .torrent файла 14 KB


Размер: 2.62 GB
Хэш (hash) релиза: 6bc8bd48a37949008c1a6654ad0b6ee0684e2419
Подписка на обновления:

Торренты, похожие на Саранча Сезон: 1 скачать торрент

Форум Название Автор Размер S L Добавлен
Российские сериалы ·· Саранча (версия без Цензуры) / Сезон: 1 / Серии: 1-4 из 4 (Егор Баранов) [2013, триллер, эротика, HDRip] Galfimbul 41739964533.89 GB 0 0 1458668713

20:45

22-Мар-16

Еще никто не оставлял запись к записи скачать торрент Саранча Сезон: 1 . Будь первым!

!Обратная связь