Whiskey Tango Foxtrot (Reporteras en guerra) (2016) | Chousei Kantai Sazer-x | Los Rugrats: Vacaciones Salvajes

Скачать через торрент Неисправимые Сезон: 1 Фильм бесплатно в хорошем качестве torrent

Скачивайте на UnionPeer.org фильмы через торрент без регистрации. Новинки кино в хорошем качестве через торрент. На UnionPeer.org можно скачать через торрент фильмы 2014 и 2015 годов. Самые новые фильмы.

Скачать торрент Неисправимые Сезон: 1 бесплатно через .torrent фильм мультфильм сериал

Статистика раздачи
Размер:  8.49 GB   |    Зарегистрирован:  3 месяца 1 день   |    .torrent скачан:  177 раз   |   
Раздают:  1  
   
загрузка...
 
Автор Сообщение

Galfimbul

avatar Galfimbul


Неисправимые
> Год выпуска: 2017> Производство: «"Iviry film" по заказу телеканала ICTV»> Жанр: Детектив, криминальный фильм> Продолжительность: ~ 45 мин.> Субтитры: Отсутствуют
> Режиссер: Анатолий Матешко
> В ролях: Даниил Белых, Дмитрий Шевченко, Анна Донченко, Мария Заныборщ, Екатерина Гулякова, Константин Косинский, Ольга Морозова, Сергей Воляновский, Наталья Лукеичева, Ольга Матешко, Екатерина Тышкевич, Евгений Лунченко, Иван Залуский, Юрий Высоцкий, Станислав Колокольников, Максим Максимюк, Владислав Пупков, Юрий Потапенко, Анна Расстальная, Александр Васин, Анатоль Фон-Филандра, Ирина Малыгина, Ирина Авдеенко, Ольга Ларина, Светлана Штанько, Михаил Малицкий, Ренат Сеттаров, Екатерина Вайвала, Александр Сугак, Слава Красовская, Пётр Крылов (II), Андрей Пархоменко, Станислав Щёкин, Александр Логинов, Владимир Ющенко (II), Владимир Захаренков, Сергей Кучера, Сергей Коршиков, Олесь Кацион, Ирина Ткаченко, Анастасия Походенко-Матешко, Анна Абрамёнок, Александр Бессмертный, Иван Бровин, Николай Бутковский, Роман Мацюта, Сергей Богаченко, Злата Швец-Скальская, Сергей Дзялик и др.
> Описание: Кто может лучше раскрыть самое запутанное преступление, чем сам преступник? По инициативе полковника полиции Стадника во вверенном ему управлении формируется отдел по расследованию наиболее сложных преступлений. В новой команде — те, кто когда-то попал в жернова карательной машины и угодил за решетку. Руководит отделом Егор Поляков — бывший спецназовец, «списанный» за ограбление банка. Дознаватель Ольга Ситницкая угодила в тюрьму за убийство садиста-маньяка, а специалист по внешним проявлениям Максим Лужин оказался на нарах стараниями влиятельного коррумпированного чиновника.



> Релиз группы
> > Семпл > Кино-Театр
> Качество:HDTVRip [Источник HDTVRip 720]> Формат: AVI> Видео кодек: XviD> Аудио кодек: AC3> Видео: 720x400 (1.80:1), 25 fps, XviD build 73 ~1500 kbps avg, 0.21 bit/pixel> Аудио: 48 kHz, AC3 Dolby Digital, 2/0 (L,R) ch, ~192.00 kbps avg
General
Complete name                       : D:\Неисправимые\Neispravimie.s01e01.2017.HDTVRip.RG.Russkie.serialy.avi
Format                              : AVI
Format/Info                         : Audio Video Interleave
File size                           : 580 MiB
Duration                            : 47mn 40s
Overall bit rate                    : 1 702 Kbps
Writing application                 : VirtualDubMod 1.5.10.3 | www.virtualdub-fr.org || (build 2550/release)
Writing library                     : VirtualDubMod build 2550/release

Video
ID                                  : 0
Format                              : MPEG-4 Visual
Format profile                      : Advanced [email protected]
Format settings, BVOP               : 2
Format settings, QPel               : No
Format settings, GMC                : No warppoints
Format settings, Matrix             : Custom
Codec ID                            : XVID
Codec ID/Hint                       : XviD
Duration                            : 47mn 40s
Bit rate                            : 1 501 Kbps
Width                               : 720 pixels
Height                              : 400 pixels
Display aspect ratio                : 16:9
Frame rate                          : 25.000 fps
Color space                         : YUV
Chroma subsampling                  : 4:2:0
Bit depth                           : 8 bits
Scan type                           : Progressive
Compression mode                    : Lossy
Bits/(Pixel*Frame)                  : 0.208
Stream size                         : 512 MiB (88%)
Writing library                     : XviD 73

Audio
ID                                  : 1
Format                              : AC-3
Format/Info                         : Audio Coding 3
Mode extension                      : CM (complete main)
Format settings, Endianness         : Big
Codec ID                            : 2000
Duration                            : 47mn 40s
Bit rate mode                       : Constant
Bit rate                            : 192 Kbps
Channel(s)                          : 2 channels
Channel positions                   : Front: L R
Sampling rate                       : 48.0 KHz
Bit depth                           : 16 bits
Compression mode                    : Lossy
Stream size                         : 65.5 MiB (11%)
Alignment                           : Split accross interleaves
Interleave, duration                : 40 ms (1.00 video frame)
Interleave, preload duration        : 500 ms


Трекер:  [ 24-Июн-2018 15:42 ]

  

Скачать .torrent

Размер .torrent файла 44 KB


Размер: 8.49 GB
Хэш (hash) релиза: 60afae38cb2f65b39d580174790270f47784804b
Подписка на обновления:

Еще никто не оставлял запись к записи скачать торрент Неисправимые Сезон: 1 . Будь первым!

!Обратная связь