Forgot your password? | Ahora me ves 2 (2016) | reason 5.

Скачать через торрент Обмен Сезон: 1 Фильм бесплатно в хорошем качестве torrent

Скачивайте на UnionPeer.org фильмы через торрент без регистрации. Новинки кино в хорошем качестве через торрент. На UnionPeer.org можно скачать через торрент фильмы 2014 и 2015 годов. Самые новые фильмы.

Скачать торрент Обмен Сезон: 1 бесплатно через .torrent фильм мультфильм сериал

Статистика раздачи
Размер:  2.1 GB   |    Зарегистрирован:  2 месяца 29 дней   |    .torrent скачан:  114 раз   |   
Раздают:  1  
   
загрузка...
 
Автор Сообщение

Galfimbul

avatar Galfimbul


Обмен
> Год выпуска: 2014> Производство: «Триикс медиа»> Жанр: Боевик, криминальный фильм> Продолжительность: ~ 44 мин.> Субтитры: Отсутствуют
> Режиссер: Виктор Татарский (II)
> В ролях: Алексей Комашко, Максим Дахненко, Роман Агеев, Валерия Шкирандо, Андрей Гульнев, Игорь Павлов, Андрей Аверков, Евгений Добряков, Руслан Барабанов, Виталий Исаков, Антон Момот, Вячеслав Аркунов, Светлана Щедрина, Николай Горшков, Алексей Фокин, Дмитрий Парфёнов (II), Екатерина Новикова, Вероника Дмитриева, Эрик Кения, Ирина Горкунова и др.
> Описание: Майор Поборцев расследует дело о серии дерзких налетов на банки. В процессе расследования ему удается захватить одного из шести налетчиков. Для этого следователю приходится также дерзко нарушить инструкцию, но попытаться спасти жизнь девушки-заложницы.При задержании бандит обещает Поборцеву, что еще заставит его пожалеть. Только кто обращает внимание на угрозы задержанных преступников? Майор получает благодарность от руководства, премию на отпуск и строгий выговор за проявленную самодеятельность.Пока его жена Наталья выбирает путевку на море и собирает чемоданы, сам Поборцев, несмотря на официальный отпуск, помогает коллегам в расследовании. Он с самого начала догадывается, что бандиты специально пустили полицию по ложному следу.Когда второй налетчик оказывается почти в руках у следователей, кто-то успевает его предупредить. О задержании, помимо Поборцева, знали пять человек. Все они теперь под подозрением, а подполковник Тепляков подозревает и самого майора.И в этот момент первый налетчик, задержанный Поборцевым, умудряется выполнить свое обещание, находясь за решеткой.Теперь следователь вынужден пойти на обмен - ему нужно довести дело до конца, но играть придется по правилам бандитов…



> Релиз группы
> > Семпл > Кино-Театр
> Качество:HDTVRip [Источник HDTV 1080i]> Формат: AVI> Видео кодек: XviD> Аудио кодек: AC3> Видео: 720x400 (1.80:1), 25 fps, XviD build 73 ~1500 kbps avg, 0.21 bit/pixel> Аудио: 48 kHz, AC3 Dolby Digital, 2/0 (L,R) ch, ~192.00 kbps avg
General
Complete name                       : D:\Обмен\Obmen.s01e01.2014.HDTVRip.RG.Russkie.serialy.avi
Format                              : AVI
Format/Info                         : Audio Video Interleave
File size                           : 535 MiB
Duration                            : 43mn 54s
Overall bit rate                    : 1 702 Kbps
Writing application                 : VirtualDubMod 1.5.10.3 | www.virtualdub-fr.org || (build 2550/release)
Writing library                     : VirtualDubMod build 2550/release

Video
ID                                  : 0
Format                              : MPEG-4 Visual
Format profile                      : Advanced [email protected]
Format settings, BVOP               : 2
Format settings, QPel               : No
Format settings, GMC                : No warppoints
Format settings, Matrix             : Custom
Codec ID                            : XVID
Codec ID/Hint                       : XviD
Duration                            : 43mn 54s
Bit rate                            : 1 501 Kbps
Width                               : 720 pixels
Height                              : 400 pixels
Display aspect ratio                : 16:9
Frame rate                          : 25.000 fps
Color space                         : YUV
Chroma subsampling                  : 4:2:0
Bit depth                           : 8 bits
Scan type                           : Progressive
Compression mode                    : Lossy
Bits/(Pixel*Frame)                  : 0.208
Stream size                         : 471 MiB (88%)
Writing library                     : XviD 73

Audio
ID                                  : 1
Format                              : AC-3
Format/Info                         : Audio Coding 3
Mode extension                      : CM (complete main)
Format settings, Endianness         : Big
Codec ID                            : 2000
Duration                            : 43mn 54s
Bit rate mode                       : Constant
Bit rate                            : 192 Kbps
Channel(s)                          : 2 channels
Channel positions                   : Front: L R
Sampling rate                       : 48.0 KHz
Bit depth                           : 16 bits
Compression mode                    : Lossy
Stream size                         : 60.3 MiB (11%)
Alignment                           : Split accross interleaves
Interleave, duration                : 40 ms (1.00 video frame)
Interleave, preload duration        : 500 ms
<div class="sp-wrap">
<div class="sp-head folded">Сравнение
</div>
<div class="sp-body">Сравнение с этой раздачей ...4842693
http://screenshotcomparison.com/comparison/115532/picture:7</div>
</div>

Трекер:  [ 24-Июн-2018 15:42 ]

  

Скачать .torrent

Размер .torrent файла 11 KB


Размер: 2.1 GB
Хэш (hash) релиза: 0d9f99a7af5bfde75511fe80846ac2a28f2ed451
Подписка на обновления:

Еще никто не оставлял запись к записи скачать торрент Обмен Сезон: 1 . Будь первым!

!Обратная связь