Ficción | Tales of Demons and Gods 167 | Vietnam War Essay

Скачать через торрент Посредник Сезон: 1 Фильм бесплатно в хорошем качестве torrent

Скачивайте на UnionPeer.org фильмы через торрент без регистрации. Новинки кино в хорошем качестве через торрент. На UnionPeer.org можно скачать через торрент фильмы 2014 и 2015 годов. Самые новые фильмы.

Скачать торрент Посредник Сезон: 1 бесплатно через .torrent фильм мультфильм сериал

Статистика раздачи
Размер:  2.17 GB   |    Зарегистрирован:  2 месяца 29 дней   |    .torrent скачан:  122 раза   |   
Раздают:  1  
   
загрузка...
 
Автор Сообщение

Galfimbul

avatar Galfimbul


Посредник
Год выпуска: 2013
Производство: «Триикс Медиа»
Жанр: Боевик
Продолжительность: ~ 45 мин.
Субтитры: Отсутствуют
Режиссер: Игорь Москвитин
В ролях: Игорь Лифанов, Джулиано Ди Капуа, Алёна Старостина, Дарья Перова, Марианна Семёнова, Дмитрий Лебедев, Андрей Полищук, Даниил Кокин, Вячеслав Карпов, Александр Завьялов, Борис Бирман, Ольга Кирсанова-Миропольская, Виталий Куликов, Алексей Федотов, Данила Воропаев, Алексей Фалилеев, Виталий Куклин, Владимир Борисов (II), Глеб Темнов, Юлия Нижельская, Валентина Ведерникова, Татьяна Маколова, Сергей Агафонов, Михаил Соловьёв, Александр Маслов и др.
Описание: Банда профессиональных похитителей требует у бизнес-вумен Елены Власюк выкуп за ее младшую сестру. Для передачи денег она нанимает профессионального посредника Андрея Данилина. Это бывший спецназовец, которому доверяют и менты, и бандиты.
Данилин едет в назначенное место, точно следуя инструкциям похитителей. По пути к месту передачи он попадает в автомобильную аварию и пока несколько минут находится без сознания, кто-то забирает у него сумку с деньгами.
Елена и Андрей оказываются в сложной ситуации. Бандиты соглашаются подождать всего два дня. За это время Данилину нужно вернуть деньги и спасти заложницу.
Релиз группы
Семпл
Кино-Театр
Качество:SATRip [ Источник DVB]
Формат: AVI
Видео кодек: XviD
Аудио кодек: AC3
Видео: 656x368 (1.78:1), 25 fps, XviD build 73 ~1499 kbps avg, 0.25 bit/pixel
Аудио: 48 kHz, AC3 Dolby Digital, 2/0 (L,R) ch, ~192.00 kbps avg
General
Complete name                       : D:\Посредник\Posrednik.s01e01.2013.SATRip.RG.Russkie.serialy.avi
Format                              : AVI
Format/Info                         : Audio Video Interleave
File size                           : 554 MiB
Duration                            : 45mn 29s
Overall bit rate                    : 1 702 Kbps
Writing application                 : VirtualDubMod 1.5.10.3 | www.virtualdub-fr.org || (build 2550/release)
Writing library                     : VirtualDubMod build 2550/release

Video
ID                                  : 0
Format                              : MPEG-4 Visual
Format profile                      : Advanced [email protected]
Format settings, BVOP               : 2
Format settings, QPel               : No
Format settings, GMC                : No warppoints
Format settings, Matrix             : Custom
Codec ID                            : XVID
Codec ID/Hint                       : XviD
Duration                            : 45mn 29s
Bit rate                            : 1 500 Kbps
Width                               : 656 pixels
Height                              : 368 pixels
Display aspect ratio                : 16:9
Frame rate                          : 25.000 fps
Color space                         : YUV
Chroma subsampling                  : 4:2:0
Bit depth                           : 8 bits
Scan type                           : Progressive
Compression mode                    : Lossy
Bits/(Pixel*Frame)                  : 0.249
Stream size                         : 488 MiB (88%)
Writing library                     : XviD 73

Audio
ID                                  : 1
Format                              : AC-3
Format/Info                         : Audio Coding 3
Mode extension                      : CM (complete main)
Format settings, Endianness         : Big
Codec ID                            : 2000
Duration                            : 45mn 29s
Bit rate mode                       : Constant
Bit rate                            : 192 Kbps
Channel(s)                          : 2 channels
Channel positions                   : Front: L R
Sampling rate                       : 48.0 KHz
Bit depth                           : 16 bits
Compression mode                    : Lossy
Stream size                         : 62.5 MiB (11%)
Alignment                           : Split accross interleaves
Interleave, duration                : 40 ms (1.00 video frame)
Interleave, preload duration        : 500 ms
Сравнение с этой раздачей ...4549551
http://screenshotcomparison.com/comparison/115668/picture:9


Трекер:  [ 24-Июн-2018 15:42 ]

  

Скачать .torrent

Размер .torrent файла 11 KB


Размер: 2.17 GB
Хэш (hash) релиза: ee7ea6c5512c64235bc8e9ce30d3f4773f24b122
Подписка на обновления:

Еще никто не оставлял запись к записи скачать торрент Посредник Сезон: 1 . Будь первым!

!Обратная связь