Infinity Challenge Ep.550 | Senior Hobbies - 志趣老友記 - Episode 12 | 12 Monkeys: Season ...

Скачать через торрент Мишель Серии: 1-4 из 4 Фильм бесплатно в хорошем качестве torrent

Скачивайте на UnionPeer.org фильмы через торрент без регистрации. Новинки кино в хорошем качестве через торрент. На UnionPeer.org можно скачать через торрент фильмы 2014 и 2015 годов. Самые новые фильмы.

Скачать торрент Мишель Серии: 1-4 из 4 бесплатно через .torrent фильм мультфильм сериал

Статистика раздачи
Размер:  5.34 GB   |    Зарегистрирован:  23 дня   |    .torrent скачан:  39 раз   |   
Раздают:  1  
   
загрузка...
 
Автор Сообщение

Galfimbul

avatar Galfimbul


Мишель

Год выпуска: 2018
Производство: "Паламеда Продакшн", ПЦ "Фабула"
Жанр: мелодрама
Продолжительность: ~00:46:00 серия
Субтитры: нет

Режиссёр: Ольга Перуновская

В ролях: Арина Постникова, Алексей Демидов, Евгения Нохрина, Ольга Сизова, Вероника Пляшкевич, Андрей Сенькин, Игорь Сигов

Описание: Мишель получила свое необычное имя благодаря отцу, которого ей не суждено было увидеть. Накануне свадьбы он был арестован за ограбление, которого не совершал. Мишель росла без отца, и мать очень надеялась, что дочка не повторит ее судьбу. Но… накануне свадьбы жениха Мишель арестовывают за убийство. Мать отправила Мишель в Москву к своей бывшей соседке Эмме. Потрясенная теплым приемом, Мишель — наивная провинциальная девушка и подумать не могла, что и радушие Эммы, и стремительный карьерный рост в ее фирме, и даже помолвка с ее сыном — части тщательно продуманной игры…

Реклама: Нет.

Кинопоиск

Sample

Качество: HDTVRip 720p - Nikolspup
Формат: MKV
Видео кодек: H.264
Аудио кодек: AC3
Видео: MPEG4 AVC Video, H264, 16:9, 1280x720, 25 fps, ~4000 kbps, 0.174 bit/pixel
Аудио: AC3 Dolby Digital, 48 kHz, 2/0 (L,R) ch, 192 kbp
General
Unique ID : 177913441919615940737257162343125826845 (0x85D8E1ED7FC56CFFBBA0D85119033D1D)
Complete name : D:\Mishel.2018.HDTVRip(720p).Nikolspup\Mishel.(01.seriya.iz.02).2018.HDTVRip(720p).Nikolspup.mkv
Format : Matroska
Format version : Version 4 / Version 2
File size : 2.69 GiB
Duration : 1 h 31 min
Overall bit rate : 4 194 kb/s
Encoded date : UTC 2018-06-24 07:32:41
Writing application : mkvmerge v7.8.0 ('River Man') 32bit built on Mar 27 2015 16:18:02
Writing library : libebml v1.3.1 + libmatroska v1.4.2

Video
ID : 1
Format : AVC
Format/Info : Advanced Video Codec
Format profile : [email protected]
Format settings : CABAC / 9 Ref Frames
Format settings, CABAC : Yes
Format settings, ReFrames : 9 frames
Codec ID : V_MPEG4/ISO/AVC
Duration : 1 h 31 min
Bit rate : 4 000 kb/s
Width : 1 280 pixels
Height : 720 pixels
Display aspect ratio : 16:9
Frame rate mode : Constant
Frame rate : 25.000 FPS
Color space : YUV
Chroma subsampling : 4:2:0
Bit depth : 8 bits
Scan type : Progressive
Bits/(Pixel*Frame) : 0.174
Stream size : 2.57 GiB (95%)
Writing library : x264 core 146 r2538 121396c
Encoding settings : cabac=1 / ref=9 / deblock=1:-2:-1 / analyse=0x3:0x133 / me=umh / subme=9 / psy=1 / psy_rd=1.00:0.20 / mixed_ref=1 / me_range=32 / chroma_me=1 / trellis=2 / 8x8dct=1 / cqm=0 / deadzone=21,11 / fast_pskip=1 / chroma_qp_offset=-3 / threads=16 / lookahead_threads=8 / sliced_threads=0 / nr=0 / decimate=1 / interlaced=0 / bluray_compat=0 / constrained_intra=0 / bframes=11 / b_pyramid=2 / b_adapt=2 / b_bias=0 / direct=1 / weightb=1 / open_gop=0 / weightp=2 / keyint=250 / keyint_min=25 / scenecut=40 / intra_refresh=0 / rc=2pass / mbtree=0 / bitrate=4000 / ratetol=1.0 / qcomp=0.60 / qpmin=0 / qpmax=69 / qpstep=4 / cplxblur=20.0 / qblur=0.5 / ip_ratio=1.40 / pb_ratio=1.30 / aq=3:1.00
Default : No
Forced : No
Color range : Limited
Color primaries : BT.709
Transfer characteristics : BT.709
Matrix coefficients : BT.709

Audio
ID : 2
Format : AC-3
Format/Info : Audio Coding 3
Codec ID : A_AC3
Duration : 1 h 31 min
Bit rate mode : Constant
Bit rate : 192 kb/s
Channel(s) : 2 channels
Channel positions : Front: L R
Sampling rate : 48.0 kHz
Frame rate : 31.250 FPS (1536 SPF)
Bit depth : 16 bits
Compression mode : Lossy
Stream size : 126 MiB (5%)
Language : Russian
Service kind : Complete Main
Default : Yes
Forced : Yes


Трекер:  [ 24-Июн-2018 13:12 ]

  

Скачать .torrent

Размер .torrent файла 27 KB


Размер: 5.34 GB
Хэш (hash) релиза: dd80216e2a321a9e4d099fe2371bb831e143a289
Подписка на обновления:

Торренты, похожие на Мишель Серии: 1-4 из 4 скачать торрент

Форум Название Автор Размер S L Добавлен
Российские сериалы ·· Мишель / Серии: 1-4 из 4 (Ольга Перуновская) [2018, мелодрама, WEBRip] Galfimbul 29247344642.72 GB 0 0 1529835146

13:12

24-Июн-18

Зарубежные сериалы ·· Смерть мозга / Безмозглые / Braindead / Сезон: 1 / Серии: 1-4 из 13 (Роберт и Мишель Кинг) [2016, фантастика, драма, комедия, HDTVRip 720p] MVO (RATTLEBOX) Galfimbul 26549904792.47 GB 0 0 1468529389

23:49

14-Июл-16

Зарубежные сериалы ·· Двойка / The Deuce / Сезон: 01 / Серии: 1-4 из 8 (Джеймс Франко, Мишель МакЛарен, Ута Бризвитц) [2017, США, драма, WEB-DLRip] MVO (NewStudio) + Original Galfimbul 31682053122.95 GB 0 0 1507316042

21:54

6-Окт-17

Зарубежные сериалы ·· Что такое хорошо, что такое плохо / Не делай того, не делай сего / Отчаянные родители / Fais pas ci, fais pas ca / Сезон: 7 / Серии: 1-4 из 6 (Мишель Леклер / Michel Leclerc) [2014 - 2015, Франция, комедия, DVB] Original + Rus Sub (Eclair Media) Galfimbul 49984944454.66 GB 0 0 1481982813

16:53

17-Дек-16

Зарубежные сериалы ·· Особо Тяжкие Преступления / Major Crimes / Сезон: 5 / Серии: 1-4 из 19 (Дэвид МакУиртер, Стив Робин, Мишель М. Робин) [2016, детектив, HDTVRip] VO (DexterTV) Galfimbul 21005773401.96 GB 0 0 1468614007

23:20

15-Июл-16

Зарубежные сериалы ·· Остатки / Оставленные / The Leftovers / Сезон: 2 / Серии: 1-4 из 10 (Мими Ледер, Питер Берг, Мишель Максвелл МакЛарен) [2015, Фэнтези, драма, детектив, WEB-DLRip 400p] MVO (Amedia) + Original + Subs (Rus) Galfimbul 46069415374.29 GB 0 0 1446522663

06:51

3-Ноя-15

Зарубежные сериалы ·· Особо Тяжкие Преступления / Major Crimes / Сезон: 4 / Серии: 1-23 из 23 (Дэвид МакУиртер, Стив Робин, Мишель М. Робин) [2015, США, детектив, HDTVRip 1080p] VO (DexterTV) + Original Galfimbul 8020054978174.69 GB 0 0 1481975690

14:54

17-Дек-16

Зарубежные сериалы ·· Игра престолов / Game of Thrones / Сезон: 4 / Серии: 1-10 из 10 (Д.Б.Вейсс, Алекс Грейвз, Мишель Максвелл МакЛарен, Алик Сахаров, Нил Маршал) [2014, США, фэнтези, драма, HDTVRip] MVO (AlexFilm) + Original Galfimbul 66834350086.22 GB 0 0 1479367255

10:20

17-Ноя-16

Зарубежные сериалы ·· Во все тяжкие / Breaking Bad / Сезон: 4 / Серии: 1-13 из 13 (Адам Бернштейн, Мишель Максвелл МакЛарен, Винс Джиллигэн) [2011, Драма, криминал, триллер, BDRemux 1080p] MVO (LostFilmTV) + DVO (Кубик в Кубе) + MVO (FoxCrime) + Original Galfimbul 130564930093121.6 GB 0 0 1455376731

18:18

13-Фев-16

Зарубежные сериалы ·· Во все тяжкие / Breaking Bad / Сезон: 4 / Серии: 1-13 из 13 (Адам Бернштейн, Мишель Максвелл МакЛарен, Винс Джиллигэн) [2011, Драма, Криминал, BDRip 720p] MVO (LostFilm) Galfimbul 2070717640119.29 GB 0 0 1446527715

08:15

3-Ноя-15

Зарубежные сериалы ·· Звёздный Путь: Энтерпрайз / Star Trek: Enterprise / Сезон: 1-4 / Серии: 98 из 98 (Дэвид Ливингстон / David Livingston, Мишель Веджэр / Allan Kroeker) [2001-2004, США, фантастика, боевик, WEB-DL] MVO (SDI Media) + Original + Rus Subs Galfimbul 3758520916035 GB 0 0 1502216571

21:22

8-Авг-17

Зарубежные сериалы ·· Особо Тяжкие Преступления / Major Crimes / Сезон: 4 / Серия: 1 из 15 (Дэвид МакУиртер, Стив Робин, Мишель М. Робин) [2015, детектив, WEB-DLRip] VO (DexterTV) Galfimbul 545740874520 MB 0 0 1434475368

20:22

16-Июн-15

Документальные фильмы и телепередачи ·· Великие горы мира / Tous les sommets du monde / Auf den Gipfeln der Welt (Жан-Мари Баррер, Жан-Мишель Веннемани, Жан-Кристоф Клотц, Эрик Вастио) [2010, Документальный, путешествия, этнография, туризм, социология, SATRip] (1-4 серии из 20) Galfimbul 20749066241.93 GB 0 0 1365713569

23:52

11-Апр-13

Еще никто не оставлял запись к записи скачать торрент Мишель Серии: 1-4 из 4 . Будь первым!

!Обратная связь