Braeden Bend | The Talk | - Все жанры

Скачать через торрент Бобры Серии: 1-2 из 2 Фильм бесплатно в хорошем качестве torrent

Скачивайте на UnionPeer.org фильмы через торрент без регистрации. Новинки кино в хорошем качестве через торрент. На UnionPeer.org можно скачать через торрент фильмы 2014 и 2015 годов. Самые новые фильмы.

Скачать торрент Бобры Серии: 1-2 из 2 бесплатно через .torrent фильм мультфильм сериал

Статистика раздачи
Размер:  1.12 GB   |    Зарегистрирован:  25 дней   |    .torrent скачан:  52 раза   |   
Раздают:  1  
   
загрузка...
 
Автор Сообщение

Galfimbul

avatar Galfimbul


Бобры

Год выпуска: 2018
Производство: Продюсерский центр «Браво» по заказу канала «НТВ»
Жанр: мелодрама
Продолжительность: ~00:45:00 серия
Субтитры: нет

Режиссёр: Юрий Попович

В ролях: Константин Соловьёв, Екатерина Вуличенко, Фёдор Лавров, Владислав Ветров, Денис Беспалый, Глеб Козляев
Описание: Действие происходит в небольшом поселке Ольховка. Сюда, к продавщице Тамаре, приезжает Владимир Суворов, военный пенсионер, отдавший 25 лет службе в ВВС. Вначале она недоумевает, зачем он приехал, ведь курортные романы должны там и заканчиваться, а он сутки гнал машину из Москвы, это что, разведка боем? Но потом сознается, что она тоже забыть его не может. Она решает, что им надо некоторое время пожить вместе, посмотреть друг на друга, а потом принять решение, как дальше быть. А то, что у нее мужик незнакомый дома ночует, неважно, ведь к ней в поселке особое отношение, она из семьи мэра. В Ольховке свой мир. Правит всем семейство Бобров, это фамилия такая. У всех жителей есть работа, лучшие в области врачи, преступности практически нет. Тут все тихо, по-семейному, каждую субботу люди приходят в клуб, смотрят кино. По соседству с Тамарой живет писатель Кругликов. Он со своими гонорарами мог бы жить в Европе, но выбрал Ольховку. По его словам, здесь настоящая Россия, которую городские интеллигенты не знают и боятся. На первый взгляд полная идиллия, живи и радуйся. Но приживется ли здесь Суворов или нет, решать будет не он, и не Тамара, а мэр, Николай Бобер, ведь, здесь его территория, его законы. Сможет ли Суворов, привыкший всю жизнь выполнять приказы, жить по уставу, по которому живет вся Ольховка...

Реклама: Нет.

Кинопоиск
Все раздачи сериала
Sample

Качество: WEBRip - Files-x
Формат: AVI
Видео кодек: XviD
Аудио кодек: AC3
Видео: 720x400 (1.80:1), 25 fps, XviD build 73 ~1470 kbps avg, 0.204 bit/pixel
Аудио: 48.0 kHz, AC3 Dolby Digital, 2/0 (L,R) ch, ~ 192 kbps
General
Complete name : D:\Бобры (2017).WEB-DLRip.Files-x\1.Бобры (2017).WEB-DLRip.Files-x.avi
Format : AVI
Format/Info : Audio Video Interleave
File size : 549 MiB
Duration : 45 min 55 s
Overall bit rate : 1 671 kb/s
Writing application : VirtualDubMod 1.5.10.3 | www.virtualdub-fr.org || (build 2550/release)
Writing library : VirtualDubMod build 2550/release

Video
ID : 0
Format : MPEG-4 Visual
Format profile : Advanced [email protected]
Format settings : BVOP1 / Custom Matrix
Format settings, BVOP : 1
Format settings, QPel : No
Format settings, GMC : No warppoints
Format settings, Matrix : Custom
Codec ID : XVID
Codec ID/Hint : XviD
Duration : 45 min 55 s
Bit rate : 1 469 kb/s
Width : 720 pixels
Height : 400 pixels
Display aspect ratio : 16:9
Frame rate : 25.000 FPS
Color space : YUV
Chroma subsampling : 4:2:0
Bit depth : 8 bits
Scan type : Progressive
Compression mode : Lossy
Bits/(Pixel*Frame) : 0.204
Stream size : 483 MiB (88%)
Writing library : XviD 73

Audio
ID : 1
Format : AC-3
Format/Info : Audio Coding 3
Codec ID : 2000
Duration : 45 min 55 s
Bit rate mode : Constant
Bit rate : 192 kb/s
Channel(s) : 2 channels
Channel positions : Front: L R
Sampling rate : 48.0 kHz
Frame rate : 31.250 FPS (1536 SPF)
Bit depth : 16 bits
Compression mode : Lossy
Stream size : 63.1 MiB (11%)
Alignment : Split accross interleaves
Interleave, duration : 40 ms (1.00 video frame)
Interleave, preload duratio : 500 ms
Service kind : Complete Main


Трекер:  [ 24-Июн-2018 12:42 ]

  

Скачать .torrent

Размер .torrent файла 11 KB


Размер: 1.12 GB
Хэш (hash) релиза: bde0149777e97884b02baa88f484fec942765805
Подписка на обновления:

Торренты, похожие на Бобры Серии: 1-2 из 2 скачать торрент

Форум Название Автор Размер S L Добавлен
Российские сериалы ·· Бобры / Серии: 1-2 из 2 (Юрий Попович) [2018, мелодрама, WEBRip 1080p] Galfimbul 43600852064.06 GB 0 0 1529835161

13:12

24-Июн-18

Российские сериалы ·· Выхожу тебя искать-2 / Сезон 2 / Серии: 1-2 из 12 (Сергей Бобров (II)) [2013, Мелодрама, SATRip] damien1990 77273395207.2 GB 0 0 1365803010

00:43

13-Апр-13

Еще никто не оставлял запись к записи скачать торрент Бобры Серии: 1-2 из 2 . Будь первым!

!Обратная связь