Brescia, Como | Jennifer Morrison | Le Rane di Ficarra e Picone Streaming

Скачать через торрент Отроки во Вселенной Фильм бесплатно в хорошем качестве torrent

Скачивайте на UnionPeer.org фильмы через торрент без регистрации. Новинки кино в хорошем качестве через торрент. На UnionPeer.org можно скачать через торрент фильмы 2014 и 2015 годов. Самые новые фильмы.

Скачать торрент Отроки во Вселенной бесплатно через .torrent фильм мультфильм сериал

Статистика раздачи
Размер:  1.47 GB   |    Зарегистрирован:  3 месяца 23 дня   |    .torrent скачан:  42 раза   |   
Раздают:  1  
   
загрузка...
 
Автор Сообщение

Galfimbul

avatar Galfimbul


Отроки во Вселенной

Жанр: Фантастика
Год выпуска: 1974
Продолжительность: 1:19:39

Режиссер: Ричард Викторов

В ролях: Миша Ершов, Саша Григорьев, Владимир Савин, Владимир Басов, Ольга Битюкова, Дима Ледогоров, Ира Попова, Иннокентий Смоктуновский, Игорь Ледогоров, Наталья Фатеева, Анатолий Адоскин, Лев Дуров, Александр Леньков, Юрий Медведев, Александр Январев

Описание: Продолжение космической миссии фильма "Москва-Кассиопея". Космический корабль с юными астронавтами на борту прилетел к планете Шедар созвездия Альфа-Кассиопея. На ее орбите они встречают жителей планеты, пославших сигнал о помощи. На планете происходят драматические события...

Источник: ...1853356

семпл: http://www.sendspace.com/file/uikvb8

Качество видео: DVDRip-AVC
Формат видео: MKV

Видео: [email protected] (2.36:1), 25 fps, AVC (H.264), 2191 kbps avg, 0.280 bit/pixel
Аудио: 48 kHz, AC3, 6 ch, 448 kbps avg
General
Unique ID : 73276312857235740694374262603631952779 (0x37208127DE7B8EBAD6B722B7A8CA038B)
Complete name : D:\КИНО\Отроки во вселенной.mkv
Format : Matroska
Format version : Version 4 / Version 2
File size : 1.47 GiB
Duration : 1 h 19 min
Overall bit rate : 2 641 kb/s
Encoded date : UTC 2018-06-24 03:43:45
Writing application : mkvmerge v22.0.0 ('At The End Of The World') 64-bit
Writing library : libebml v1.3.5 + libmatroska v1.4.8

Video
ID : 1
Format : AVC
Format/Info : Advanced Video Codec
Format profile : [email protected]
Format settings : CABAC / 16 Ref Frames
Format settings, CABAC : Yes
Format settings, ReFrames : 16 frames
Codec ID : V_MPEG4/ISO/AVC
Duration : 1 h 19 min
Bit rate : 2 191 kb/s
Width : 720 pixels
Height : 434 pixels
Display aspect ratio : 2.35:1
Original display aspect rat : 2.35:1
Frame rate mode : Constant
Frame rate : 25.000 FPS
Color space : YUV
Chroma subsampling : 4:2:0
Bit depth : 8 bits
Scan type : Progressive
Bits/(Pixel*Frame) : 0.280
Stream size : 1.22 GiB (83%)
Writing library : x264 core 148 r2744 b97ae06
Encoding settings : cabac=1 / ref=16 / deblock=1:-2:-1 / analyse=0x3:0x133 / me=umh / subme=10 / psy=1 / psy_rd=1.00:0.10 / mixed_ref=1 / me_range=32 / chroma_me=1 / trellis=2 / 8x8dct=1 / cqm=0 / deadzone=21,11 / fast_pskip=0 / chroma_qp_offset=-3 / threads=6 / lookahead_threads=1 / sliced_threads=0 / nr=0 / decimate=1 / interlaced=0 / bluray_compat=0 / constrained_intra=0 / bframes=10 / b_pyramid=2 / b_adapt=2 / b_bias=0 / direct=3 / weightb=1 / open_gop=0 / weightp=2 / keyint=250 / keyint_min=25 / scenecut=40 / intra_refresh=0 / rc_lookahead=60 / rc=2pass / mbtree=1 / bitrate=2191 / ratetol=1.0 / qcomp=0.60 / qpmin=10 / qpmax=51 / qpstep=4 / cplxblur=20.0 / qblur=0.5 / vbv_maxrate=62500 / vbv_bufsize=78125 / nal_hrd=none / filler=0 / ip_ratio=1.40 / aq=1:1.00
Default : Yes
Forced : No

Audio
ID : 2
Format : AC-3
Format/Info : Audio Coding 3
Codec ID : A_AC3
Duration : 1 h 19 min
Bit rate mode : Constant
Bit rate : 448 kb/s
Channel(s) : 6 channels
Channel positions : Front: L C R, Side: L R, LFE
Sampling rate : 48.0 kHz
Frame rate : 31.250 FPS (1536 SPF)
Bit depth : 16 bits
Compression mode : Lossy
Delay relative to video : 520 ms
Stream size : 255 MiB (17%)
Service kind : Complete Main
Default : Yes
Forced : No
---[Information] [23.06.2018 23:04:18] raw [info]: 720x434p 12803:9000 @ 25/1 fps (cfr)
---[Information] [23.06.2018 23:04:18] x264 [info]: using SAR=12803/9000
---[Information] [23.06.2018 23:04:18] x264 [info]: using cpu capabilities: MMX2 SSE2Fast SSSE3 SSE4.2 AVX XOP FMA4 FMA3 LZCNT BMI1
---[Information] [23.06.2018 23:04:18] x264 [info]: profile High, level 4.1
---[Information] [24.06.2018 1:52:35] x264 [info]: frame I:693 Avg QP:14.86 size: 51191
---[Information] [24.06.2018 1:52:35] x264 [info]: frame P:28988 Avg QP:16.96 size: 24033
---[Information] [24.06.2018 1:52:35] x264 [info]: frame B:89816 Avg QP:20.64 size: 6425
---[Information] [24.06.2018 1:52:35] x264 [info]: consecutive B-frames: 2.0% 3.4% 10.0% 37.0% 22.9% 21.1% 2.4% 0.6% 0.3% 0.2% 0.0%
---[Information] [24.06.2018 1:52:35] x264 [info]: mb I I16..4: 3.1% 82.8% 14.2%
---[Information] [24.06.2018 1:52:35] x264 [info]: mb P I16..4: 2.7% 23.5% 2.5% P16..4: 29.1% 22.4% 16.8% 1.4% 0.5% skip: 1.1%
---[Information] [24.06.2018 1:52:35] x264 [info]: mb B I16..4: 0.5% 3.8% 0.2% B16..8: 31.6% 11.8% 3.6% direct:19.1% skip:29.3% L0:39.0% L1:30.4% BI:30.5%
---[Information] [24.06.2018 1:52:35] x264 [info]: 8x8 transform intra:82.5% inter:69.6%
---[Information] [24.06.2018 1:52:35] x264 [info]: direct mvs spatial:97.2% temporal:2.8%
---[Information] [24.06.2018 1:52:35] x264 [info]: coded y,uvDC,uvAC intra: 83.2% 82.2% 45.8% inter: 41.7% 46.6% 5.1%
---[Information] [24.06.2018 1:52:35] x264 [info]: i16 v,h,dc,p: 70% 5% 4% 21%
---[Information] [24.06.2018 1:52:35] x264 [info]: i8 v,h,dc,ddl,ddr,vr,hd,vl,hu: 23% 11% 27% 5% 5% 7% 5% 8% 9%
---[Information] [24.06.2018 1:52:35] x264 [info]: i4 v,h,dc,ddl,ddr,vr,hd,vl,hu: 39% 9% 8% 5% 8% 10% 7% 8% 6%
---[Information] [24.06.2018 1:52:35] x264 [info]: i8c dc,h,v,p: 37% 26% 28% 9%
---[Information] [24.06.2018 1:52:35] x264 [info]: Weighted P-Frames: Y:48.9% UV:38.0%
---[Information] [24.06.2018 1:52:35] x264 [info]: ref P L0: 39.9% 15.1% 11.6% 6.7% 5.0% 4.3% 3.3% 2.3% 1.9% 1.7% 1.6% 1.5% 1.4% 1.3% 1.3% 1.1%
---[Information] [24.06.2018 1:52:35] x264 [info]: ref B L0: 82.9% 6.7% 2.7% 1.7% 1.2% 1.0% 0.8% 0.6% 0.5% 0.4% 0.4% 0.4% 0.3% 0.3% 0.2%
---[Information] [24.06.2018 1:52:35] x264 [info]: ref B L1: 98.5% 1.5%
---[Information] [24.06.2018 1:52:35] x264 [info]: kb/s:2191.16
...2850546
1. Аспект искажен по вертикали (2.1:1 вместо 2.36:1)
2. Звуковая дорожка Dolby AC3, 6 ch, 48.0 KHz, 256 Kbps не соответствует стандарту и исходнику 48 kHz, AC3, 6 ch, 448 kbps


Трекер:  [ 24-Июн-2018 07:54 ]

  

Скачать .torrent

Размер .torrent файла 15 KB


Размер: 1.47 GB
Хэш (hash) релиза: 8af6637d7019c3a41f9d500223354493e7e87673
Подписка на обновления:

Еще никто не оставлял запись к записи скачать торрент Отроки во Вселенной . Будь первым!

!Обратная связь