Lista Serie Tv in AltaDefinizione | Better.Call.Saul.S01E07.720p.x264-LOL.srt | Paranormal.Activity.(2007).720p.BDRip.Du...

Скачать через торрент Цена прошлого Фильм бесплатно в хорошем качестве torrent

Скачивайте на UnionPeer.org фильмы через торрент без регистрации. Новинки кино в хорошем качестве через торрент. На UnionPeer.org можно скачать через торрент фильмы 2014 и 2015 годов. Самые новые фильмы.

Скачать торрент Цена прошлого бесплатно через .torrent фильм мультфильм сериал

Статистика раздачи
Размер:  3.03 GB   |    Зарегистрирован:  3 месяца 2 дня   |    .torrent скачан:  50 раз   |   
Раздают:  1  
   
загрузка...
 
Автор Сообщение

Galfimbul

avatar Galfimbul


Цена прошлого (Принцип домино)

Год выпуска: 2018
Производство: Evolution Pictures
Жанр: мелодрама
Продолжительность: ~00:46:00 серия
Субтитры: нет

Режиссёр: Карен Захаров

В ролях: Анна Казючиц, Денис Матросов, Евгений Миллер, Лидия Арефьева, Ульяна Куликова, Марина Казанкова, Евгения Осипова, Елена Папанова, Дарья Фекленко, Ирина Гришина, Максим Важов, Евгений Березовский

Описание: Кажется, что у супругов Алексея и Марии Головиных есть все для семейного счастья – хороший дом в элитном поселке, престижная работа и десятилетняя дочь – Катя. Но все резко меняется, когда Мария, поддавшись минутной слабости и погрязнув в рутине семейной жизни, начинает крутить роман с бывшим одноклассником Олегом Демьяненко, который в школе был безответно в нее влюблен.
Очень быстро Мария понимает, что своим поступком поставила под удар будущее семьи, и решает с ним порвать. Но Олег не собирается ее отпускать… Постепенно Мария понимает, что Олег вовсе не тот, за кого себя выдает…
Удастся ли Марии вырваться из этого плена и восстановить отношения с Алексеем?

Реклама: Нет.

Кино-театр
Все раздачи сериала
Sample

Качество: WEBRip-AVC - Серый1779
Формат: MKV
Видео кодек: H.264
Аудио кодек: AC3
Видео: MPEG4 AVC Video, H264, 16:9, 1024x576, 25 fps, ~2100 kbps, 0.142 bit/pixel
Аудио: AC3 Dolby Digital, 48.0 kHz, 2/0 (L,R) ch, 192 kbps
General
Unique ID : 237270876503733504206775971413624425445 (0xB280B566BDB80FBAAD81100383690BE5)
Complete name : D:\Цена прошлого.2018.WEB-DLRip (AVC)\01.Цена прошлого.2018.WEB-DLRip (AVC).mkv
Format : Matroska
Format version : Version 2
File size : 769 MiB
Duration : 46 min 51 s
Overall bit rate : 2 294 kb/s
Encoded date : UTC 2018-06-22 17:46:51
Writing application : mkvmerge v7.8.0 ('River Man') 32bit built on Apr 3 2015 12:11:22
Writing library : libebml v1.3.1 + libmatroska v1.4.2

Video
ID : 1
Format : AVC
Format/Info : Advanced Video Codec
Format profile : [email protected]
Format settings : CABAC / 9 Ref Frames
Format settings, CABAC : Yes
Format settings, ReFrames : 9 frames
Codec ID : V_MPEG4/ISO/AVC
Duration : 46 min 51 s
Bit rate : 2 100 kb/s
Width : 1 024 pixels
Height : 576 pixels
Display aspect ratio : 16:9
Frame rate mode : Constant
Frame rate : 25.000 FPS
Color space : YUV
Chroma subsampling : 4:2:0
Bit depth : 8 bits
Scan type : Progressive
Bits/(Pixel*Frame) : 0.142
Stream size : 689 MiB (90%)
Writing library : x264 core 146 r2538 121396c
Encoding settings : cabac=1 / ref=9 / deblock=1:-2:-2 / analyse=0x3:0x113 / me=umh / subme=10 / psy=1 / psy_rd=1.00:0.15 / mixed_ref=1 / me_range=32 / chroma_me=1 / trellis=2 / 8x8dct=1 / cqm=0 / deadzone=21,11 / fast_pskip=1 / chroma_qp_offset=-3 / threads=2 / lookahead_threads=1 / sliced_threads=0 / nr=0 / decimate=0 / interlaced=0 / bluray_compat=0 / constrained_intra=0 / bframes=3 / b_pyramid=2 / b_adapt=2 / b_bias=0 / direct=3 / weightb=1 / open_gop=0 / weightp=2 / keyint=240 / keyint_min=23 / scenecut=40 / intra_refresh=0 / rc=2pass / mbtree=0 / bitrate=2100 / ratetol=1.0 / qcomp=0.60 / qpmin=0 / qpmax=69 / qpstep=4 / cplxblur=20.0 / qblur=0.5 / ip_ratio=1.40 / pb_ratio=1.30 / aq=1:1.00
Default : Yes
Forced : No

Audio
ID : 2
Format : AC-3
Format/Info : Audio Coding 3
Codec ID : A_AC3
Duration : 46 min 51 s
Bit rate mode : Constant
Bit rate : 192 kb/s
Channel(s) : 2 channels
Channel positions : Front: L R
Sampling rate : 48.0 kHz
Frame rate : 31.250 FPS (1536 SPF)
Bit depth : 16 bits
Compression mode : Lossy
Stream size : 64.4 MiB (8%)
Service kind : Complete Main
Default : Yes
Forced : No


Трекер:  [ 23-Июн-2018 21:12 ]

  

Скачать .torrent

Размер .torrent файла 16 KB


Размер: 3.03 GB
Хэш (hash) релиза: 8d67e02231b009e619fcd4ff8a0d59f0504b25cf
Подписка на обновления:

Торренты, похожие на Цена прошлого скачать торрент

Форум Название Автор Размер S L Добавлен
Российские сериалы ·%· Цена прошлого (Принцип домино) / Серии: 1-4 из 4 (Карен Захаров) [2018, мелодрама, WEBRip] Galfimbul 25161605122.34 GB 0 0 1529655135

11:12

22-Июн-18

Еще никто не оставлял запись к записи скачать торрент Цена прошлого . Будь первым!

!Обратная связь