Offline Thesaurus Dictionary APK Premium | Audi A 4 Avant Ambition 2.0 TDI Ultra | 5.4

Скачать через торрент Цена прошлого Фильм бесплатно в хорошем качестве torrent

Скачивайте на UnionPeer.org фильмы через торрент без регистрации. Новинки кино в хорошем качестве через торрент. На UnionPeer.org можно скачать через торрент фильмы 2014 и 2015 годов. Самые новые фильмы.

Скачать торрент Цена прошлого бесплатно через .torrent фильм мультфильм сериал

Статистика раздачи
Размер:  2.34 GB   |    Зарегистрирован:  3 месяца 3 дня   |    .torrent скачан:  65 раз   |   
Раздают:  1  
   
загрузка...
 
Автор Сообщение

Galfimbul

avatar Galfimbul


Цена прошлого (Принцип домино)

Год выпуска: 2018
Производство: Evolution Pictures
Жанр: мелодрама
Продолжительность: ~00:46:00 серия
Субтитры: нет

Режиссёр: Карен Захаров

В ролях: Анна Казючиц, Денис Матросов, Евгений Миллер, Лидия Арефьева, Ульяна Куликова, Марина Казанкова, Евгения Осипова, Елена Папанова, Дарья Фекленко, Ирина Гришина, Максим Важов, Евгений Березовский

Описание: Кажется, что у супругов Алексея и Марии Головиных есть все для семейного счастья – хороший дом в элитном поселке, престижная работа и десятилетняя дочь – Катя. Но все резко меняется, когда Мария, поддавшись минутной слабости и погрязнув в рутине семейной жизни, начинает крутить роман с бывшим одноклассником Олегом Демьяненко, который в школе был безответно в нее влюблен.
Очень быстро Мария понимает, что своим поступком поставила под удар будущее семьи, и решает с ним порвать. Но Олег не собирается ее отпускать… Постепенно Мария понимает, что Олег вовсе не тот, за кого себя выдает…
Удастся ли Марии вырваться из этого плена и восстановить отношения с Алексеем?

Реклама: Нет.

Кино-театр
Все раздачи сериала
Sample

Качество: WEBRip - Files-x
Формат: AVI
Видео кодек: XviD
Аудио кодек: AC3
Видео: 720x400 (1.80:1), 25 fps, XviD build 73 ~1580 kbps avg, 0.220 bit/pixel
Аудио: 48.0 kHz, AC3 Dolby Digital, 2/0 (L,R) ch, ~ 192 kbps
General
Complete name : D:\Цена прошлого.2018.WEB-DLRip.Files-x\01.Цена прошлого.2018.WEB-DLRip.Files-x.avi
Format : AVI
Format/Info : Audio Video Interleave
File size : 599 MiB
Duration : 46 min 51 s
Overall bit rate : 1 787 kb/s
Writing application : VirtualDubMod 1.5.10.3 | www.virtualdub-fr.org || (build 2550/release)
Writing library : VirtualDubMod build 2550/release

Video
ID : 0
Format : MPEG-4 Visual
Format profile : Advanced [email protected]
Format settings : BVOP1 / QPel / Custom Matrix
Format settings, BVOP : 1
Format settings, QPel : Yes
Format settings, GMC : No warppoints
Format settings, Matrix : Custom
Codec ID : XVID
Codec ID/Hint : XviD
Duration : 46 min 51 s
Bit rate : 1 585 kb/s
Width : 720 pixels
Height : 400 pixels
Display aspect ratio : 16:9
Frame rate : 25.000 FPS
Color space : YUV
Chroma subsampling : 4:2:0
Bit depth : 8 bits
Scan type : Progressive
Compression mode : Lossy
Bits/(Pixel*Frame) : 0.220
Stream size : 531 MiB (89%)
Writing library : XviD 73

Audio
ID : 1
Format : AC-3
Format/Info : Audio Coding 3
Codec ID : 2000
Duration : 46 min 51 s
Bit rate mode : Constant
Bit rate : 192 kb/s
Channel(s) : 2 channels
Channel positions : Front: L R
Sampling rate : 48.0 kHz
Frame rate : 31.250 FPS (1536 SPF)
Bit depth : 16 bits
Compression mode : Lossy
Stream size : 64.4 MiB (11%)
Alignment : Split accross interleaves
Interleave, duration : 40 ms (1.00 video frame)
Interleave, preload duratio : 500 ms
Service kind : Complete Main


Трекер:  [ 22-Июн-2018 11:12 ]

  

Скачать .torrent

Размер .torrent файла 12 KB


Размер: 2.34 GB
Хэш (hash) релиза: 2c23b498f9574a349b39314bfa96a24f2253652e
Подписка на обновления:

Торренты, похожие на Цена прошлого скачать торрент

Форум Название Автор Размер S L Добавлен
Российские сериалы ·%· Цена прошлого (Принцип домино) / Серии: 1-4 из 4 (Карен Захаров) [2018, мелодрама, WEBRip-AVC] Galfimbul 32572560353.03 GB 0 0 1529777537

21:12

23-Июн-18

Еще никто не оставлял запись к записи скачать торрент Цена прошлого . Будь первым!

!Обратная связь