Comments (0) | Temporada 3 | the big bang theory

Скачать через торрент Русская десятка. Выпуск от 1 декабря 1999 года Фильм бесплатно в хорошем качестве torrent

Скачивайте на UnionPeer.org фильмы через торрент без регистрации. Новинки кино в хорошем качестве через торрент. На UnionPeer.org можно скачать через торрент фильмы 2014 и 2015 годов. Самые новые фильмы.

Скачать торрент Русская десятка. Выпуск от 1 декабря 1999 года бесплатно через .torrent фильм мультфильм сериал

Статистика раздачи
Размер:  3.07 GB   |    Зарегистрирован:  3 месяца 2 дня   |    .torrent скачан:  21 раз   |   
Раздают:  1  
   
загрузка...
 
Автор Сообщение

Galfimbul

avatar Galfimbul


Русская десятка

Дата выпуска: 1 декабря 1999 года
Страна: Россия
Жанр: развлекательный
Продолжительность: 00:52:21

Телеканал: MTV Россия

Описание: Выпуск программы «Русская десятка» с Таней Геворкян 1 декабря 1999 года.

Список видеоклипов:
Дельфин – Я буду жить
Алсу – Иногда
Отпетые мошенники – Му-му
Земфира – Почему
Вирус – Ты меня не ищи
Пеп-си – Диско
Никита – С неба ты сошла
Агата Кристи – Дорога паука
Мумий Тролль – Невеста
Демо – Солнышко
Иванушки Int. – Два бездонных океана глаз

Доп. информация: Огромная благодарность MAD_MAX_2 за исходник!

Качество: TVRip
Формат: MPG
Видео кодек: MPEG2
Аудио кодек: AC3
Видео: MPEG2 Video 720x576 (4:3) 25fps 7980kbps
Аудио: Dolby AC3 48000Hz stereo 256kbps
GeneralComplete name : 1999-12-01 Русская десятка [MTV Россия].mpgFormat : MPEG-PSFile size : 3.07 GiBDuration : 52 min 20 sOverall bit rate mode : VariableOverall bit rate : 8 403 kb/sWriting library : (dvd5: Oct 27 2015)

VideoID : 224 (0xE0)Format : MPEG VideoFormat version : Version 2Format profile : [email protected] settings, BVOP : YesFormat settings, Matrix : CustomFormat settings, GOP : M=3, N=15Format settings, picture struc : FrameDuration : 52 min 20 sBit rate mode : VariableBit rate : 7 980 kb/sMaximum bit rate : 9 800 kb/sWidth : 720 pixelsHeight : 576 pixelsDisplay aspect ratio : 4:3Frame rate : 25.000 FPSStandard : PALColor space : YUVChroma subsampling : 4:2:0Bit depth : 8 bitsScan type : InterlacedScan order : Top Field FirstCompression mode : LossyBits/(Pixel*Frame) : 0.770Time code of first frame : 00:00:00:00Time code source : Group of pictures headerGOP, Open/Closed : OpenGOP, Open/Closed of first fram : ClosedStream size : 2.92 GiB (95%)Writing library : (dvd5: Oct 27 2015)

AudioID : 189 (0xBD)-128 (0x80)Format : AC-3Format/Info : Audio Coding 3Format settings, Endianness : BigMuxing mode : DVD-VideoDuration : 52 min 20 sBit rate mode : ConstantBit rate : 256 kb/sChannel(s) : 2 channelsChannel positions : Front: L RSampling rate : 48.0 kHzFrame rate : 31.250 FPS (1536 SPF)Bit depth : 16 bitsCompression mode : LossyStream size : 95.9 MiB (3%)Service kind : Complete Main


Трекер:  [ 21-Июн-2018 23:42 ]

  

Скачать .torrent

Размер .torrent файла 16 KB


Размер: 3.07 GB
Хэш (hash) релиза: 9eba8322d2fa5d031c4ec280f2033170dede45a5
Подписка на обновления:

Еще никто не оставлял запись к записи скачать торрент Русская десятка. Выпуск от 1 декабря 1999 года . Будь первым!

!Обратная связь