Animes Boku no hero academia 3x11 | DOWNLOAD | Rhinorose

Скачать через торрент Плакучая ива Серии: 1-4 из 12 Фильм бесплатно в хорошем качестве torrent

Скачивайте на UnionPeer.org фильмы через торрент без регистрации. Новинки кино в хорошем качестве через торрент. На UnionPeer.org можно скачать через торрент фильмы 2014 и 2015 годов. Самые новые фильмы.

Скачать торрент Плакучая ива Серии: 1-4 из 12 бесплатно через .torrent фильм мультфильм сериал

Статистика раздачи
Размер:  1.38 GB   |    Зарегистрирован:  25 дней   |    .torrent скачан:  37 раз   |   
Раздают:  1  
   
загрузка...
 
Автор Сообщение

Galfimbul

avatar Galfimbul


Плакучая ива

Год выпуска: 2018
Производство: Щука
Жанр: мелодрама
Продолжительность: ~00:33:00 серия
Субтитры: нет

Режиссёр: Феликс Герчиков

В ролях: Анна Снаткина, Борис Хвошнянский, Анна Лутцева, Александр Андриенко, Ольга Сумская, Кирилл Полухин, Михаил Гаврилов, Дмитрий Фрид, Игнат Акрачков, Игорь Денисов

Описание: Красино. 1914 год. В аристократической среде происходит убийство известной актрисы Марии Александровны Шуваловой. Московский следователь Владимир Константинович Драпеко начинает следствие. Каждое расследование для него — это своего рода театр, где каждому подозреваемому отводится своя роль.
Красино. 2014 год. В старинном охотничьем домике бывшей дворянской усадьбы администрация города выделяет жилье для Екатерины Шуваловой. Должность зам. главы по социальным вопросам — это постоянный контакт с людьми и нескончаемый ворох проблем жителей Красино. Бескомпромиссность и ответственность — не всегда помощники Кати Шуваловой, но все, что она делает для людей, она делает с открытым сердцем. Все жители Красино вековой давности в той или иной степени находят свое продолжение в поколении нынешнем…

Реклама: Нет.

Кинопоиск

Sample

Качество: WEBRip - Files-x
Формат: AVI
Видео кодек: XviD
Аудио кодек: AC3
Видео: 720x400 (1.80:1), 25 fps, XviD build 73 ~1500 kbps avg, 0.206 bit/pixel
Аудио: 48.0 kHz, AC3 Dolby Digital, 2/0 (L,R) ch, ~ 192 kbps
Раздача ведётся путём добавления новых серий, при каждом добавлении создаётся новый торрент. Чтобы начать докачку новой серии, пользователям необходимо сделать следующее:

- Остановить скачивание.
- Удалить старый торрент у себя из клиента (старые серии удалять не надо).
- Скачать новый торрент и запустить его у себя в клиенте вместо старого, при этом указать клиенту путь в старую папку куда и должно происходить скачивание новых серий.

Ваш клиент при этом должен произвести хеширование (проверку) старой папки (если не производит сам - помогите ему сделать это), и будет докачивать только те серии которых у вас ещё нет. Старые серии при этом не удаляются, а продолжают раздаваться!
Если вы уже удалили старые серии, то предотвратить повторную закачку старых серий можно, отжав галочку в соответствующих местах при запуске нового торрента. По возможности, желательно не удалять старые серии как можно дольше, чтобы релизер не столько продолжал раздавать старые серии, а смог сконцентрироваться на новых.
General
Complete name : D:\Плакучая ива..2018.WEB-DLRip.Files-x\01.Плакучая ива..2018.WEB-DLRip.Files-x.avi
Format : AVI
Format/Info : Audio Video Interleave
File size : 404 MiB
Duration : 33 min 27 s
Overall bit rate : 1 688 kb/s
Writing application : VirtualDubMod 1.5.10.3 | www.virtualdub-fr.org || (build 2550/release)
Writing library : VirtualDubMod build 2550/release

Video
ID : 0
Format : MPEG-4 Visual
Format profile : Advanced [email protected]
Format settings : BVOP1 / Custom Matrix
Format settings, BVOP : 1
Format settings, QPel : No
Format settings, GMC : No warppoints
Format settings, Matrix : Custom
Codec ID : XVID
Codec ID/Hint : XviD
Duration : 33 min 27 s
Bit rate : 1 487 kb/s
Width : 720 pixels
Height : 400 pixels
Display aspect ratio : 16:9
Frame rate : 25.000 FPS
Color space : YUV
Chroma subsampling : 4:2:0
Bit depth : 8 bits
Scan type : Progressive
Compression mode : Lossy
Bits/(Pixel*Frame) : 0.206
Stream size : 356 MiB (88%)
Writing library : XviD 73

Audio
ID : 1
Format : AC-3
Format/Info : Audio Coding 3
Codec ID : 2000
Duration : 33 min 27 s
Bit rate mode : Constant
Bit rate : 192 kb/s
Channel(s) : 2 channels
Channel positions : Front: L R
Sampling rate : 48.0 kHz
Frame rate : 31.250 FPS (1536 SPF)
Bit depth : 16 bits
Compression mode : Lossy
Stream size : 45.9 MiB (11%)
Alignment : Split accross interleaves
Interleave, duration : 40 ms (1.00 video frame)
Interleave, preload duratio : 500 ms
Service kind : Complete Main


Трекер:  [ 21-Июн-2018 13:12 ]

  

Скачать .torrent

Размер .torrent файла 14 KB


Размер: 1.38 GB
Хэш (hash) релиза: 18712a6637ff96280d57bda09125cbb2a3180fe4
Подписка на обновления:

Торренты, похожие на Плакучая ива Серии: 1-4 из 12 скачать торрент

Форум Название Автор Размер S L Добавлен
Российские сериалы ·%· Плакучая ива / Серии: 1-4 из 12 (Феликс Герчиков) [2018, мелодрама, WEBRip-AVC] Galfimbul 15390171721.43 GB 0 0 1529574134

12:42

21-Июн-18

Еще никто не оставлял запись к записи скачать торрент Плакучая ива Серии: 1-4 из 12 . Будь первым!

!Обратная связь