Eps10 Evil Lives Here - Season 2 (2017) | Türkisch für Anfänger (2012) | Darker than Black: Ryusei no Gemini

Скачать через торрент Три в одном-3 Серии: 1-2 из 2 Фильм бесплатно в хорошем качестве torrent

Скачивайте на UnionPeer.org фильмы через торрент без регистрации. Новинки кино в хорошем качестве через торрент. На UnionPeer.org можно скачать через торрент фильмы 2014 и 2015 годов. Самые новые фильмы.

Скачать торрент Три в одном-3 Серии: 1-2 из 2 бесплатно через .torrent фильм мультфильм сериал

Статистика раздачи
Размер:  1.46 GB   |    Зарегистрирован:  3 месяца 7 дней   |    .torrent скачан:  86 раз   |   
Раздают:  1  
   
загрузка...
 
Автор Сообщение

Galfimbul

avatar Galfimbul



Три в одном-3


Год выпуска: 2018
Производство: Свэлл Фильм
Жанр: детектив, криминал
Продолжительность: ~00:46:00
Субтитры: Нет
Реклама: Отсутствует
Режиссёр: Илья Хотиненко
В ролях: Александр Ефремов, Александр Ратников, Алексей Штукин, Андрей Карако, Артём Семакин, Кристина Исайкина, Наталья Рычкова, Сергей Белякович, Сергей Паршин
Описание: В агентство расставаний и встреч "Новая жизнь" обращается женщина, которая мечтает развестись с мужем, но боится последствий – семейные ссоры уже не раз заканчивались рукоприкладством. И хотя клиентка внезапно меняет своё решение и отказывается от услуг агентства, Инга уверена, что женщина по-прежнему нуждается в помощи. Уверенность Инги только растёт, когда клиентка перестаёт выходить на связь...


Предыдущие и альтернативные раздачи
Качество: WEBRip
Формат: MKV
Видео кодек: H.264
Аудио кодек: AC3
Видео: MPEG-4 AVC, 960x540 (16:9), 25.000 fps, ~2076 kbps avg, 0.160 bit/pixel
Аудио: 48 kHz, AC3 Dolby Digital, 2/0 (L,R) ch, ~192 kbps avg
Complete name               : D:\Раздача\Три в одном 3 (2018)\01 - Три в одном 3 (2018).mkv
Format                      : Matroska
Format version              : Version 2
File size                   : 747 MiB
Duration                    : 46 min 1 s
Overall bit rate            : 2 269 kb/s
Movie name                  : 01 - Три в одном 3 (2018)
Encoded date                : UTC 2018-06-18 21:20:05
Writing application         : mkvmerge v4.4.0 ('Die Wiederkehr') сборка от Jan  3 2011 21:40:45
Writing library             : libebml v1.0.0 + libmatroska v1.0.0
Cover                       : Yes
Attachments                 : cover.png

Video
ID                          : 1
Format                      : AVC
Format/Info                 : Advanced Video Codec
Format profile              : [email protected]
Format settings, CABAC      : Yes
Format settings, RefFrames  : 14 frames
Codec ID                    : V_MPEG4/ISO/AVC
Duration                    : 46 min 1 s
Bit rate                    : 2 076 kb/s
Width                       : 960 pixels
Height                      : 540 pixels
Display aspect ratio        : 16:9
Frame rate mode             : Constant
Frame rate                  : 25.000 FPS
Color space                 : YUV
Chroma subsampling          : 4:2:0
Bit depth                   : 8 bits
Scan type                   : Progressive
Bits/(Pixel*Frame)          : 0.160
Stream size                 : 669 MiB (90%)
Title                       : Rip by ivanes20031987
Writing library             : x264 core 155 r2901 7d0ff22
Encoding settings           : cabac=1 / ref=14 / deblock=1:-3:-3 / analyse=0x3:0x113 / me=umh / subme=10 / psy=1 / psy_rd=1.00:0.00 / mixed_ref=1 / me_range=32 / chroma_me=1 / trellis=2 / 8x8dct=1 / cqm=0 / deadzone=21,11 / fast_pskip=0 / chroma_qp_offset=-2 / threads=12 / lookahead_threads=3 / sliced_threads=0 / nr=0 / decimate=0 / interlaced=0 / bluray_compat=0 / constrained_intra=0 / bframes=14 / b_pyramid=2 / b_adapt=2 / b_bias=0 / direct=1 / weightb=1 / open_gop=0 / weightp=2 / keyint=250 / keyint_min=25 / scenecut=40 / intra_refresh=0 / rc_lookahead=60 / rc=2pass / mbtree=0 / bitrate=2076 / ratetol=1.0 / qcomp=0.60 / qpmin=0 / qpmax=69 / qpstep=4 / cplxblur=20.0 / qblur=0.5 / vbv_maxrate=50000 / vbv_bufsize=62500 / nal_hrd=none / filler=0 / ip_ratio=1.40 / pb_ratio=1.30 / aq=1:1.00
Default                     : Yes
Forced                      : No

Audio
ID                          : 2
Format                      : AC-3
Format/Info                 : Audio Coding 3
Format settings, Endianness : Big
Codec ID                    : A_AC3
Duration                    : 46 min 1 s
Bit rate mode               : Constant
Bit rate                    : 192 kb/s
Channel(s)                  : 2 channels
Channel positions           : Front: L R
Sampling rate               : 44.1 kHz
Frame rate                  : 28.711 FPS (1536 SPF)
Bit depth                   : 16 bits
Compression mode            : Lossy
Stream size                 : 63.2 MiB (8%)
Language                    : Russian
Service kind                : Complete Main
Default                     : Yes
Forced                      : No


Трекер:  [ 19-Июн-2018 02:12 ]

  

Скачать .torrent

Размер .torrent файла 15 KB


Размер: 1.46 GB
Хэш (hash) релиза: 9db5b9e87cc4ca10d740b1b25f792f831a1f775d
Подписка на обновления:

Торренты, похожие на Три в одном-3 Серии: 1-2 из 2 скачать торрент

Форум Название Автор Размер S L Добавлен
Российские сериалы ·%· Три в одном-3 / Серии: 1-2 из 2 (Илья Хотиненко) [2018, детектив, криминал, WEBRip] Galfimbul 12598620161.17 GB 0 0 1529340136

19:42

18-Июн-18

Российские сериалы ·*· Три в одном-3 / Серии: 1-2 из 2 (Илья Хотиненко) [2018, детектив, криминал, SATRip-AVC] aleksan55 12582899331.17 GB 0 0 1529084023

20:33

15-Июн-18

Еще никто не оставлял запись к записи скачать торрент Три в одном-3 Серии: 1-2 из 2 . Будь первым!

!Обратная связь