Последние темы | Веб / программирование | Running Man Episode 383

Скачать через торрент Садовое кольцо Серии: 1 из 12 Фильм бесплатно в хорошем качестве torrent

Скачивайте на UnionPeer.org фильмы через торрент без регистрации. Новинки кино в хорошем качестве через торрент. На UnionPeer.org можно скачать через торрент фильмы 2014 и 2015 годов. Самые новые фильмы.

Скачать торрент Садовое кольцо Серии: 1 из 12 бесплатно через .torrent фильм мультфильм сериал

Статистика раздачи
Размер:  1.96 GB   |    Зарегистрирован:  1 месяц   |    .torrent скачан:  37 раз   |   
Раздают:  1  
   
загрузка...
 
Автор Сообщение

Galfimbul

avatar Galfimbul


Садовое кольцо

Год выпуска: 2018
Производство: Мармот-фильм
Жанр: детектив, мелодрама
Продолжительность: ~00:50:00 серия
Субтитры: нет

Режиссёр: Алексей Смирнов

В ролях: Мария Миронова, Анатолий Белый, Евгения Брик (Хиривская), Петар Зекавица, Ирина Розанова, Илья Мирошников, Мария Голубкина, Максим Виторган, Юлия Ауг, Фёдор Лавров, Александра Ребенок, Виктор Буй, Ксения Щербакова, Николай Шрайбер, Авдотья Смирнова, Виктор Грудев, Руслан Аскеров, Константин Чепурин, Дмитрий Горевой, Виктория Корлякова, Дмитрий Фрид, Евгения Калинец, Екатерина Васильева

Описание: Вере Смолиной можно только позавидовать. У нее идеальная семья. В ее доме царит любовь, согласие и счастье. Пока в один прекрасный день не исчезает ее сын Илья. Казалось бы, что могло случиться в безоблачной вселенной Веры? Пытаясь понять, что произошло с Ильей, не смотря на неверие в нее окружающих, Вера начинает свое собственное расследование. И обнаруживает, что привычный мир, который окружает ее — совсем не таков, каким казался ей многие годы.

Реклама: Нет.



Sample

Качество: HDTV 1080i - olegka7373 (GeneralFilm)
Формат: TS
Видео кодек: AVC
Аудио кодек: AC3, MP2
Видео: MPEG4 AVC Video, H264, 16:9, 1920x1080, 25 fps, ~4700 kbps, 0.091 bit/pixel
Аудио: AC3, 6 ch, 384 kbps, 16 bits, 48.0 KHz
Аудио 2: MP2, 2 ch, 192 kbps, 16 bits, 48.0 KHz
Раздача ведётся путём добавления новых серий, при каждом добавлении создаётся новый торрент. Чтобы начать докачку новой серии, пользователям необходимо сделать следующее:

- Остановить скачивание.
- Удалить старый торрент у себя из клиента (старые серии удалять не надо).
- Скачать новый торрент и запустить его у себя в клиенте вместо старого, при этом указать клиенту путь в старую папку куда и должно происходить скачивание новых серий.

Ваш клиент при этом должен произвести хеширование (проверку) старой папки (если не производит сам - помогите ему сделать это), и будет докачивать только те серии которых у вас ещё нет. Старые серии при этом не удаляются, а продолжают раздаваться!
Если вы уже удалили старые серии, то предотвратить повторную закачку старых серий можно, отжав галочку в соответствующих местах при запуске нового торрента. По возможности, желательно не удалять старые серии как можно дольше, чтобы релизер не столько продолжал раздавать старые серии, а смог сконцентрироваться на новых.
General
ID : 1 (0x1)
Complete name : D:\Sadovoe kolco.HDTV(1080i).GeneralFilm\01.Sadovoe kolco.HDTV(1080i).GeneralFilm.ts
Format : MPEG-TS
File size : 1.96 GiB
Duration : 50 min 23 s
Overall bit rate mode : Variable
Overall bit rate : 5 564 kb/s

Video
ID : 4121 (0x1019)
Menu ID : 80 (0x50)
Format : AVC
Format/Info : Advanced Video Codec
Format profile : [email protected]
Format settings : CABAC / 3 Ref Frames
Format settings, CABAC : Yes
Format settings, ReFrames : 3 frames
Codec ID : 27
Duration : 50 min 23 s
Bit rate : 4 707 kb/s
Width : 1 920 pixels
Height : 1 080 pixels
Display aspect ratio : 16:9
Frame rate : 25.000 FPS
Standard : Component
Color space : YUV
Chroma subsampling : 4:2:0
Bit depth : 8 bits
Scan type : Interlaced
Scan type, store method : Separated fields
Scan order : Top Field First
Bits/(Pixel*Frame) : 0.091
Stream size : 1.66 GiB (85%)
Color range : Limited
Color primaries : BT.709
Transfer characteristics : BT.709
Matrix coefficients : BT.709

Audio #1
ID : 4124 (0x101C)
Menu ID : 80 (0x50)
Format : AC-3
Format/Info : Audio Coding 3
Codec ID : 6
Duration : 50 min 23 s
Bit rate mode : Constant
Bit rate : 384 kb/s
Channel(s) : 6 channels
Channel positions : Front: L C R, Side: L R, LFE
Sampling rate : 48.0 kHz
Frame rate : 31.250 FPS (1536 SPF)
Bit depth : 16 bits
Compression mode : Lossy
Delay relative to video : -80 ms
Stream size : 138 MiB (7%)
Language : Russian
Service kind : Complete Main

Audio #2
ID : 4125 (0x101D)
Menu ID : 80 (0x50)
Format : MPEG Audio
Format version : Version 1
Format profile : Layer 2
Codec ID : 3
Duration : 50 min 23 s
Bit rate mode : Constant
Bit rate : 192 kb/s
Channel(s) : 2 channels
Sampling rate : 48.0 kHz
Frame rate : 41.667 FPS (1152 SPF)
Compression mode : Lossy
Delay relative to video : -80 ms
Stream size : 69.2 MiB (3%)
Language : Russian


Трекер:  [ 18-Июн-2018 19:42 ]

  

Скачать .torrent

Размер .torrent файла 20 KB


Размер: 1.96 GB
Хэш (hash) релиза: 843eee28eca427dbb9fb201b13244e47b4d10e4d
Подписка на обновления:

Торренты, похожие на Садовое кольцо Серии: 1 из 12 скачать торрент

Форум Название Автор Размер S L Добавлен
Российские сериалы ·%· Садовое кольцо / Серии: 1 из 12 (Алексей Смирнов) [2018, детектив, мелодрама, HDTVRip 720p] Galfimbul 13959763521.3 GB 0 0 1529343745

20:42

18-Июн-18

Российские сериалы ·%· Садовое кольцо / Серии: 1 из 12 (Алексей Смирнов) [2018, детектив, мелодрама, HDTVRip] Galfimbul 757216802722 MB 0 0 1529340145

19:42

18-Июн-18

Российские сериалы ·*· Садовое кольцо / Серии: 1-12 из 12 (Алексей Смирнов) [2018,мелодрама, SATRip-AVC] aleksan55 84876271377.9 GB 0 0 1529328462

16:27

18-Июн-18

Еще никто не оставлял запись к записи скачать торрент Садовое кольцо Серии: 1 из 12 . Будь первым!

!Обратная связь