RAY DONOVAN | Stand Up все сезоны | TheVideo

Скачать через торрент Самое большое Кабаре мира: 20 лет Les 20 ans du Plus Grand Cabaret du monde Фильм бесплатно в хорошем качестве torrent

Скачивайте на UnionPeer.org фильмы через торрент без регистрации. Новинки кино в хорошем качестве через торрент. На UnionPeer.org можно скачать через торрент фильмы 2014 и 2015 годов. Самые новые фильмы.

Скачать торрент Самое большое Кабаре мира: 20 лет Les 20 ans du Plus Grand Cabaret du monde бесплатно через .torrent фильм мультфильм сериал

Статистика раздачи
Размер:  4.86 GB   |    Зарегистрирован:  3 месяца 8 дней   |    .torrent скачан:  55 раз   |   
Раздают:  1  
   
загрузка...
 
Автор Сообщение

Galfimbul

avatar Galfimbul


Самое большое Кабаре мира: 20 лет / Les 20 ans du Plus Grand Cabaret du monde

Год выпуска: 2018
Страна: Франция
Жанр: шоу, кабаре, цирк
Продолжительность: 01:46:04
Описание:
Последний выпуск (от 16.06.18) телепередачи "Le Plus Grand Cabaret du Monde", посвящённый празднованию 20-летней годовщины "Самого большого Кабаре мира" (телеканал France 2) в Full HD качестве. Оставлены только выступления артистов. Перевод не требуется.

Выступают:
01. Les Danseuses du Moulin Rouge
02. Hans Klok - grande illusion
03. La collection 1
04. Zurcaroh - troupe acrobates
05. SOS & Victoria - quick change
06. Tony & Jordan - grande illusion
07. Shirley et Dino
08. Troupe de Zheidjiang - contorsion avec ombrelles
09. Jigalov & Oleg - clowns
10. Duo Flame - main à main
11. Vincent C - magie (machine à laver)
12. La collection 2
13. Revolution Gauchos - Boleadoras (danse argentine)
14. Bernard Bilis - magie close-up
15. Troupe de Zheidjiang - équilibre sur cannes
16. Jean-Pierre Blanchard - peinture sur scène
17. Strahlemann & Sohne - jonglage strip-tease
18. Shin Lim - Magie close-up sur scène
19. Die Maiers - trapèze humour
20. Dany Lary - grande illusion
21. La collection 3
22. Patrick Sebastien

Качество: HDTVRip
Контейнер: mkv
Видео кодек: H.264
Аудио кодек: AAC
Чаптеры: есть
Видео: H.264, 1920x1080, 25.000 fps, 6424 Kbps
Аудио: AAC, 2.0 ch, 48000 Hz, 129 Kbps
GeneralUnique ID : 210207437076723724079365807840368889205 (0x9E247AD18B6659E8A4B97F9D04998D75)Complete name : E:\Les 20 ans du Plus Grand Cabaret du monde.mkvFormat : MatroskaFormat version : Version 4 / Version 2File size : 4.86 GiBDuration : 1 h 46 minOverall bit rate : 6 558 kb/sEncoded date : UTC 2018-06-17 17:05:53Writing application : mkvmerge v8.3.0 ('Over the Horizon') 32bitWriting library : libebml v1.3.1 + libmatroska v1.4.2

VideoID : 1Format : AVCFormat/Info : Advanced Video CodecFormat profile : [email protected] settings : CABAC / 4 Ref FramesFormat settings, CABAC : YesFormat settings, ReFrames : 4 framesFormat settings, GOP : M=4, N=21Codec ID : V_MPEG4/ISO/AVCDuration : 1 h 46 minBit rate : 6 424 kb/sWidth : 1 920 pixelsHeight : 1 080 pixelsDisplay aspect ratio : 16:9Frame rate mode : VariableFrame rate : 50.000 FPSOriginal frame rate : 25.000 FPSColor space : YUVChroma subsampling : 4:2:0Bit depth : 8 bitsScan type : InterlacedScan type, store method : Separated fieldsScan order : Top Field FirstBits/(Pixel*Frame) : 0.062Stream size : 4.76 GiB (98%)Default : YesForced : NoColor range : LimitedColor primaries : BT.709Transfer characteristics : BT.709Matrix coefficients : BT.709

AudioID : 2Format : AACFormat/Info : Advanced Audio CodecFormat profile : LCCodec ID : A_AAC-2Duration : 1 h 46 minBit rate : 129 kb/sChannel(s) : 2 channelsChannel positions : Front: L RSampling rate : 48.0 kHzFrame rate : 46.875 FPS (1024 SPF)Compression mode : LossyStream size : 98.0 MiB (2%)Language : FrenchDefault : YesForced : No

Menu


Трекер:  [ 18-Июн-2018 03:12 ]

  

Скачать .torrent

Размер .torrent файла 24 KB


Размер: 4.86 GB
Хэш (hash) релиза: e822be5045dbf35b210b6ce3709f9b9a22308c78
Подписка на обновления:

Еще никто не оставлял запись к записи скачать торрент Самое большое Кабаре мира: 20 лет Les 20 ans du Plus Grand Cabaret du monde . Будь первым!

!Обратная связь