thumbnails | Watch movie | Six Feet Under (5)

Скачать через торрент Тренер Фильм бесплатно в хорошем качестве torrent

Скачивайте на UnionPeer.org фильмы через торрент без регистрации. Новинки кино в хорошем качестве через торрент. На UnionPeer.org можно скачать через торрент фильмы 2014 и 2015 годов. Самые новые фильмы.

Скачать торрент Тренер бесплатно через .torrent фильм мультфильм сериал

Статистика раздачи
Размер:  1.46 GB   |    Зарегистрирован:  3 месяца 4 дня   |    .torrent скачан:  89 раз   |   
Раздают:  1  
   
загрузка...
 
Автор Сообщение

Galfimbul

avatar Galfimbul


Тренер

Страна: Россия
Жанр: драма, спорт
Год выпуска: 2018
Продолжительность: 02:12:22
Субтитры: нет
Режиссер: Данила Козловский
В ролях: Данила Козловский, Владимир Ильин, Андрей Смоляков, Ольга Зуева, Ирина Горбачёва, Виктор Вержбицкий, Мария Лобанова, Павел Ворожцов, Игорь Гордин, Александр Ильин
Описание: Футболист национальной сборной Юрий Столешников в ответственный момент не забивает пенальти. После досадной ошибки Столешников покидает сборную, завершает карьеру и становится тренером маленькой провинциальной команды. Именно с этим клубом Столешникову предстоит совершить чудо и вновь поверить в себя

Качество видео: WEB-DLRip
Формат видео: AVI

Видео: 720x304 (2.37:1), 25 fps, XviD build 73 ~1380 kbps avg, 0.25 bit/pixel
Аудио: 48 kHz, AC3 Dolby Digital, 2/0 (L,R) ch, ~192 kbps
<div class="post-box-default">
<div class="post-box">Сэмпл</div>
</div>
Format                      : AVI
Format/Info                 : Audio Video Interleave
File size                   : 1.46 GiB
Duration                    : 2 h 12 min
Overall bit rate            : 1 582 kb/s
Writing application         : VirtualDubMod 1.5.10.3 | www.virtualdub-fr.org || (build 2550/release)
Writing library             : VirtualDubMod build 2550/release

Video
ID                          : 0
Format                      : MPEG-4 Visual
Format profile              : Advanced [email protected]
Format settings             : BVOP1
Format settings, BVOP       : 1
Format settings, QPel       : No
Format settings, GMC        : No warppoints
Format settings, Matrix     : Default (MPEG)
Codec ID                    : XVID
Codec ID/Hint               : XviD
Duration                    : 2 h 12 min
Bit rate                    : 1 381 kb/s
Width                       : 720 pixels
Height                      : 304 pixels
Display aspect ratio        : 2.35:1
Frame rate                  : 25.000 FPS
Color space                 : YUV
Chroma subsampling          : 4:2:0
Bit depth                   : 8 bits
Scan type                   : Progressive
Compression mode            : Lossy
Bits/(Pixel*Frame)          : 0.252
Stream size                 : 1.28 GiB (87%)
Writing library             : XviD 73

Audio
ID                          : 1
Format                      : AC-3
Format/Info                 : Audio Coding 3
Codec ID                    : 2000
Duration                    : 2 h 12 min
Bit rate mode               : Constant
Bit rate                    : 192 kb/s
Channel(s)                  : 2 channels
Channel positions           : Front: L R
Sampling rate               : 48.0 kHz
Frame rate                  : 31.250 FPS (1536 SPF)
Bit depth                   : 16 bits
Compression mode            : Lossy
Stream size                 : 182 MiB (12%)
Alignment                   : Split accross interleaves
Interleave, duration        : 40  ms (1.00 video frame)
Interleave, preload duratio : 500  ms
Service kind                : Complete Main


Трекер:  [ 14-Июн-2018 19:24 ]

  

Скачать .torrent

Размер .torrent файла 15 KB


Размер: 1.46 GB
Хэш (hash) релиза: 05e829b9561b092c55b9f2dbd02cf15777d14f3d
Подписка на обновления:

Торренты, похожие на Тренер скачать торрент

Форум Название Автор Размер S L Добавлен
Российские фильмы 2016-2018 (Новинки русского кино) ·%· Тренер (2018) HDTVRip-AVC от Files-x Galfimbul 14690701511.37 GB 0 0 1532354409

17:00

23-Июл-18

Российские фильмы 2016-2018 (Новинки русского кино) ·%· Тренер (2018) HDTVRip от Files-x Galfimbul 22066790402.06 GB 0 0 1531692011

01:00

16-Июл-18

Российские фильмы 2016-2018 (Новинки русского кино) ·· Тренер (2018) WEB-DLRip от Scarabey | iTunes Galfimbul 835393536797 MB 0 0 1529166015

19:20

16-Июн-18

Российские фильмы 2016-2018 (Новинки русского кино) ·· Тренер (2018) WEB-DLRip-AVC | iTunes Galfimbul 15580471681.45 GB 0 0 1529161852

18:10

16-Июн-18

Российские фильмы до 2016 ·· Тренер (Данила Козловский) [2018, Россия, драма, спорт, WEB-DL 1080p] Original Rus Galfimbul 50397106664.69 GB 0 0 1529118109

06:01

16-Июн-18

Российские фильмы 2016-2018 (Новинки русского кино) ·· Тренер (2018) WEB-DLRip от Scarabey | iTunes Galfimbul 15531909121.45 GB 0 0 1529089613

22:06

15-Июн-18

Российские фильмы 2016-2018 (Новинки русского кино) ·· Тренер (2018) WEB-DLRip от Scarabey | iTunes Galfimbul 23382179842.18 GB 0 0 1529087590

21:33

15-Июн-18

Российские фильмы до 2016 ·· Тренер (Данила Козловский) [2018, драма, спорт, WEB-DLRip-AVC] Galfimbul 15142343951.41 GB 0 0 1529070848

16:54

15-Июн-18

Российские фильмы 2016-2018 (Новинки русского кино) ·· Тренер (2018) WEB-DLRip от Generalfilm | КПК | iTunes Galfimbul 527938780503 MB 0 0 1529010030

00:00

15-Июн-18

Российские фильмы 2016-2018 (Новинки русского кино) ·%· Тренер (2018) WEB-DLRip от GeneralFilm | iTunes Galfimbul 11710914561.09 GB 0 0 1528990908

18:41

14-Июн-18

Российские фильмы 2016-2018 (Новинки русского кино) ·%· Тренер (2018) WEB-DLRip-AVC от ExKinoRay | iTunes Galfimbul 782870665747 MB 0 0 1528986195

17:23

14-Июн-18

Российские фильмы 2016-2018 (Новинки русского кино) ·%· Тренер (2018) WEB-DLRip-AVC от OlLanDGroup | iTunes Galfimbul 23389651922.18 GB 0 0 1528962157

10:42

14-Июн-18

Российские фильмы 2016-2018 (Новинки русского кино) ·%· Тренер (2018) WEB-DL 720p | iTunes Galfimbul 43422556574.04 GB 0 0 1528947121

06:32

14-Июн-18

Российские фильмы до 2016 ·%· Тренер (Данила Козловский) [2018, драма, спорт, WEB-DLRip] Galfimbul 23433072642.18 GB 0 0 1528943049

05:24

14-Июн-18

Российские фильмы 2016-2018 (Новинки русского кино) ·%· Тренер (2018) WEB-DLRip от MegaPeer | iTunes Galfimbul 23433072642.18 GB 0 0 1528928445

01:20

14-Июн-18

Российские фильмы 2016-2018 (Новинки русского кино) ·%· Тренер (2018) WEB-DLRip от MegaPeer | iTunes Galfimbul 15683502081.46 GB 0 0 1528925929

00:38

14-Июн-18

Российские фильмы 2016-2018 (Новинки русского кино) ·%· Тренер (2018) WEB-DL 1080p | iTunes Galfimbul 50397215454.69 GB 0 0 1528925920

00:38

14-Июн-18

Зарубежные фильмы до 2016 ·· Тренер / McFarland, USA (Ники Каро / Niki Caro) [2015, США, Драма, биография, спорт, DVD9] R5 MVO + Sub Rus + Original Eng Galfimbul 70829711366.6 GB 0 0 1525451455

19:30

4-Май-18

Зарубежные фильмы до 2016 ·· Тренер / McFarland, USA (Ники Каро / Nici Caro) [2015, США, драма, биография, спорт, SATRip] [Open Matte] MVO + Original (Eng) + MVO (Kaz) Galfimbul 23525683202.19 GB 0 0 1506592870

13:01

28-Сен-17

Еще никто не оставлял запись к записи скачать торрент Тренер . Будь первым!

!Обратная связь