Tawan Tor Saeng (ตะวันทอแสง) | T.M. Munna | Purgatory

Скачать через торрент Ликвидация Сезон: 1 Фильм бесплатно в хорошем качестве torrent

Скачивайте на UnionPeer.org фильмы через торрент без регистрации. Новинки кино в хорошем качестве через торрент. На UnionPeer.org можно скачать через торрент фильмы 2014 и 2015 годов. Самые новые фильмы.

Скачать торрент Ликвидация Сезон: 1 бесплатно через .torrent фильм мультфильм сериал

Статистика раздачи
Размер:  7.53 GB   |    Зарегистрирован:  7 дней   |    .torrent скачан:  46 раз   |   
Раздают:  1  
   
загрузка...
 
Автор Сообщение

Galfimbul

avatar Galfimbul


Ликвидация
> Год выпуска: 2007> Производство: «ЗАО "Централ Партнершип" студия "Дед Мороз"»> Жанр: Военный фильм, детектив, исторический фильм, шпионский фильм> Продолжительность: ~ 45 мин.> Субтитры: Отсутствуют
> Режиссер: Сергей Урсуляк
> В ролях: Владимир Машков, Михаил Пореченков, Владимир Меньшов, Сергей Маковецкий, Светлана Крючкова, Юрий Лахин, Александр Сирин, Константин Лавроненко, Константин Желдин, Полина Агуреева, Лика Нифонтова, Ксения Раппопорт, Диана Малая, Виктор Смирнов, Фёдор Добронравов, Борис Каморзин, Александр Голубев, Виктор Супрун, Андрей Бронников, Сергей Угрюмов, Алексей Кирющенко, Александр Семчев, Максим Дрозд, Николай Спиридонов, Олег Басилашвили, Юрий Авшаров, Олег Кассин, Валерий Трошин, Беата Маковская, Сергей Рубеко, Виктор Соловьёв, Геннадий Чулков, Пётр Меркурьев, Владимир Юматов, Станислав Стрелков, Алексей Жиров, Александр Матросов, Сергей Неудачин, Евгений Куршинский, Виктор Тереля, Роман Крюков, Станислав Лесной, Вячеслав Молоков, Олег Семисынов, Виктор Лысенко, Александр Ковалёв, Олег Кулаев, Константин Балакирев, Тимофей Трибунцев, Артём Осипов, Кирилл Кяро, Александр Чернявский (II), Александр Карпиловский, Наталья Рожкова, Богдан Бенюк, Григорий Данцигер, Владимир Михайловский, Александр Карамнов, Святослав Чирков, Наталья Карпунина, Виктор Пасечник, Павел Ворожцов, Игорь Ларин (II), Альберт Каспарянц, Всеволод Кабанов, Андрей Щенников, Валентин Козачков, Андрей Шибаршин, Юрий Мазихин, Валерий Легин и др.
> Описание: Лето 1946 года. Маршал Жуков в опале. Он отправлен в ссылку в Одессу, где нет житья от воров, убийц и вымогателей, а дерзкая безжалостная банда «Степные волки» повадилась грабить военные склады. И всем заправляет неуловимый немецкий шпион «Академик», которого никто не знает в лицо. И только начальник угрозыска Давид Гоцман и Георгий Жуков могут спасти город. Они задумывают сложную и опасную операцию…

Узнав об этом, романтичная Алена отправляется в колонию-поселение за любимым, которому она вовсе не нужна…



> Релиз группы
> > Семпл > Кино-Театр
> Качество:HDTVRip [Источник HDTV 1080i от.MediaClub]> Формат: AVI> Видео кодек: XviD> Аудио кодек: AC3> Видео: 720x400 (1.80:1), 25 fps, XviD build 73 ~1499 kbps avg, 0.21 bit/pixel> Аудио: 48 kHz, AC3 Dolby Digital, 2/0 (L,R) ch, ~192.00 kbps avg
General
Complete name                       : D:\Ликвидация\Likvidaciya.s01e01.2007.HDTVRip.RG.Russkie.serialy.avi
Format                              : AVI
Format/Info                         : Audio Video Interleave
File size                           : 555 MiB
Duration                            : 45mn 35s
Overall bit rate                    : 1 701 Kbps
Writing application                 : VirtualDubMod 1.5.10.3 | www.virtualdub-fr.org || (build 2550/release)
Writing library                     : VirtualDubMod build 2550/release

Video
ID                                  : 0
Format                              : MPEG-4 Visual
Format profile                      : Advanced [email protected]
Format settings, BVOP               : 2
Format settings, QPel               : No
Format settings, GMC                : No warppoints
Format settings, Matrix             : Custom
Codec ID                            : XVID
Codec ID/Hint                       : XviD
Duration                            : 45mn 35s
Bit rate                            : 1 500 Kbps
Width                               : 720 pixels
Height                              : 400 pixels
Display aspect ratio                : 16:9
Frame rate                          : 25.000 fps
Color space                         : YUV
Chroma subsampling                  : 4:2:0
Bit depth                           : 8 bits
Scan type                           : Progressive
Compression mode                    : Lossy
Bits/(Pixel*Frame)                  : 0.208
Stream size                         : 489 MiB (88%)
Writing library                     : XviD 73

Audio
ID                                  : 1
Format                              : AC-3
Format/Info                         : Audio Coding 3
Mode extension                      : CM (complete main)
Format settings, Endianness         : Big
Codec ID                            : 2000
Duration                            : 45mn 35s
Bit rate mode                       : Constant
Bit rate                            : 192 Kbps
Channel(s)                          : 2 channels
Channel positions                   : Front: L R
Sampling rate                       : 48.0 KHz
Bit depth                           : 16 bits
Compression mode                    : Lossy
Stream size                         : 62.6 MiB (11%)
Alignment                           : Split accross interleaves
Interleave, duration                : 40 ms (1.00 video frame)
Interleave, preload duration        : 500 ms
<div class="sp-wrap">
<div class="sp-head folded">Сравнение
</div>
<div class="sp-body">Сравнение с этой раздачей ...4977321
http://screenshotcomparison.com/comparison/114874/picture:9</div>
</div>

Трекер:  [ 14-Июн-2018 18:12 ]

  

Скачать .torrent

Размер .torrent файла 39 KB


Размер: 7.53 GB
Хэш (hash) релиза: 29099a5ccda78232eaed3cb8d92784c918140c22
Подписка на обновления:

Торренты, похожие на Ликвидация Сезон: 1 скачать торрент

Форум Название Автор Размер S L Добавлен
Российские сериалы ·· Ликвидация / Сезон: 1 / Серии: 1-14 из 14 (Сергей Урсуляк) [2007, детектив, шпионский, DVDRip] Galfimbul 1522748089014.18 GB 0 0 1510518167

23:22

12-Ноя-17

Российские сериалы ·· Ликвидация / Сезон: 1 / Серии: 1-14 из 14 (Сергей Урсуляк) [2007, Детектив, боевик, Blu-ray disc 1080p] Galfimbul 4914774359745.77 GB 0 0 1490426606

10:23

25-Мар-17

Российские сериалы ·· Ликвидация / Сезон: 1 / Серии: 1-14 из 14 (Сергей Урсуляк) [Россия, детектив, криминал, триллер, Blu-Ray 1080i] Galfimbul 4914774400545.77 GB 0 0 1488558671

19:31

3-Мар-17

Российские сериалы ·· Ликвидация / Сезон: 1 / Серии: 1-14 из 14 (Сергей Урсуляк) [2007, Детектив, боевик, HDTVRip (720p)] Galfimbul 2336199178821.76 GB 0 0 1431794092

19:34

16-Май-15

Российские сериалы ·· Ликвидация / Сезон: 1 / Серии: 1-14 из 14 (Сергей Урсуляк) [2007, Детектив, боевик, HDTVRip-AVC] Galfimbul 1258296662111.72 GB 0 0 1431761879

10:37

16-Май-15

Российские сериалы ·· Ликвидация / Сезон: 1 / Серии: 1-14 из 14 (Сергей Урсуляк) [2007, Детектив, боевик, HDTV 1080i] Galfimbul 4070275632437.91 GB 0 0 1431745448

06:04

16-Май-15

Российские сериалы ·· Ликвидация / Сезон: 1 / Серии: 14 из 14 (Сергей Урсуляк) [2007, Детектив, боевик, HDTVRip] Galfimbul 93520204228.71 GB 0 0 1428093158

23:32

3-Апр-15

Еще никто не оставлял запись к записи скачать торрент Ликвидация Сезон: 1 . Будь первым!

!Обратная связь