Das karmesinrote Blütenblatt | Mei Gong He Da An | Episodes

Скачать через торрент На одном дыхании Сезон: 1 Фильм бесплатно в хорошем качестве torrent

Скачивайте на UnionPeer.org фильмы через торрент без регистрации. Новинки кино в хорошем качестве через торрент. На UnionPeer.org можно скачать через торрент фильмы 2014 и 2015 годов. Самые новые фильмы.

Скачать торрент На одном дыхании Сезон: 1 бесплатно через .torrent фильм мультфильм сериал

Статистика раздачи
Размер:  2.09 GB   |    Зарегистрирован:  2 месяца 3 дня   |    .torrent скачан:  79 раз   |   
Раздают:  1  
   
загрузка...
 
Автор Сообщение

Galfimbul

avatar Galfimbul


На одном дыхании
Год выпуска: 2014
Производство: «ТВЦ СВЭЛЛ фильм»
Жанр: Детектив
Продолжительность: ~ 44 мин.
Субтитры: Отсутствуют
Режиссер: Александр Соловьёв (II)
В ролях: Дарья Чаруша, Андрей Биланов, Ирина Гринёва, Ольга Волкова, Алексей Юдников, Екатерина Соловьёва, Валерий Трошин, Владимир Берзин, Антон Денисенко, Валерий Задонский, Даниил Коновалов (II), Владимир Кошенков, Ирина Чипиженко, Наталья Третьякова, Регина Тодоренко и др.
Описание: Экранизация романа Татьяны Устиновой.

Владимир Разлогов – успешный бизнесмен. Главный его помощник – заместитель Марк Волошин, с которым Разлогов дружит со студенческих лет. Владимир счастлив и в личной жизни: жена Глафира очень любит мужа, и у него сохранились хорошие отношения с бывшей супругой Мариной – известной актрисой. Но однажды всё меняется...
В утренних новостях сообщают, что Разлогов скончался от сердечного приступа у себя на даче. Оставшись одна, Глафира пытается выяснить, кто виноват в случившемся...



Релиз группы
Семпл
Кино-Театр
Качество:SATRip [ Источник DVB]
Формат: AVI
Видео кодек: XviD
Аудио кодек: AC3
Видео: 704x400 (1.76:1), 25 fps, XviD build 73 ~1499 kbps avg, 0.21 bit/pixel
Аудио: 48 kHz, AC3 Dolby Digital, 2/0 (L,R) ch, ~192.00 kbps avg
General
Complete name                       : D:\На одном дыхании\Na.odnom.dihanii.s01e01.2014.SATRip.RG.Russkie.serialy.avi
Format                              : AVI
Format/Info                         : Audio Video Interleave
File size                           : 543 MiB
Duration                            : 44mn 37s
Overall bit rate                    : 1 702 Kbps
Writing application                 : VirtualDubMod 1.5.10.3 | www.virtualdub-fr.org || (build 2550/release)
Writing library                     : VirtualDubMod build 2550/release

Video
ID                                  : 0
Format                              : MPEG-4 Visual
Format profile                      : Advanced [email protected]
Format settings, BVOP               : 2
Format settings, QPel               : No
Format settings, GMC                : No warppoints
Format settings, Matrix             : Custom
Codec ID                            : XVID
Codec ID/Hint                       : XviD
Duration                            : 44mn 37s
Bit rate                            : 1 500 Kbps
Width                               : 704 pixels
Height                              : 400 pixels
Display aspect ratio                : 16:9
Frame rate                          : 25.000 fps
Color space                         : YUV
Chroma subsampling                  : 4:2:0
Bit depth                           : 8 bits
Scan type                           : Progressive
Compression mode                    : Lossy
Bits/(Pixel*Frame)                  : 0.213
Stream size                         : 479 MiB (88%)
Writing library                     : XviD 73

Audio
ID                                  : 1
Format                              : AC-3
Format/Info                         : Audio Coding 3
Mode extension                      : CM (complete main)
Format settings, Endianness         : Big
Codec ID                            : 2000
Duration                            : 44mn 37s
Bit rate mode                       : Constant
Bit rate                            : 192 Kbps
Channel(s)                          : 2 channels
Channel positions                   : Front: L R
Sampling rate                       : 48.0 KHz
Bit depth                           : 16 bits
Compression mode                    : Lossy
Stream size                         : 61.3 MiB (11%)
Alignment                           : Split accross interleaves
Interleave, duration                : 40 ms (1.00 video frame)
Interleave, preload duration        : 500 ms
Сравнение с этой раздачей ...4726561
http://screenshotcomparison.com/comparison/115030/picture:7


Трекер:  [ 14-Июн-2018 18:12 ]

  

Скачать .torrent

Размер .torrent файла 11 KB


Размер: 2.09 GB
Хэш (hash) релиза: 6202e1f5235d7039553d7d68188b1e2c47630409
Подписка на обновления:

Еще никто не оставлял запись к записи скачать торрент На одном дыхании Сезон: 1 . Будь первым!

!Обратная связь