In Death #36 - Calculated in Death | In Death #37 - Thankless in Death | In Death #37.5 - Taken in Death

Скачать через торрент Нелюбимый Сезон: 1 Фильм бесплатно в хорошем качестве torrent

Скачивайте на UnionPeer.org фильмы через торрент без регистрации. Новинки кино в хорошем качестве через торрент. На UnionPeer.org можно скачать через торрент фильмы 2014 и 2015 годов. Самые новые фильмы.

Скачать торрент Нелюбимый Сезон: 1 бесплатно через .torrent фильм мультфильм сериал

Статистика раздачи
Размер:  2.06 GB   |    Зарегистрирован:  7 дней   |    .torrent скачан:  49 раз   |   
Раздают:  1  
   
загрузка...
 
Автор Сообщение

Galfimbul

avatar Galfimbul


Нелюбимый
Год выпуска: 2011
Производство: «Студия "Анкор", "Маркес"»
Жанр: Мелодрама
Продолжительность: ~ 41 мин.
Субтитры: Отсутствуют
Режиссер: Егор Анашкин
В ролях: Светлана Антонова, Алексей Бардуков, Станислав Бондаренко, Иван Оганесян, Андрей Феськов, Анна Гуляренко, Юрий Внуков, Юрий Шлыков, Любовь Кондрашова, Валентина Березуцкая, Татьяна Пискарёва, Ольга Спиркина, Мария Добржинская, Павел Мисаилов, Александр Фирсанов, Ольга Демидова, Сергей Кагаков, Зинаида Матросова, Яна Куц, Наталья Смирнова, Александр Сухинин, Наталья Третьякова, Луиза Габриэла Бровина, Лев Насибулин и др.
Описание: Молодая врач никак не может устроить свою личную жизнь из-за страшного клейма которое лежит на её плечах. Все старания устроить свою жизнь терпят неудачи. А судьба находится совсем рядом...



Релиз группы
Семпл
Кино-Театр
Качество:SATRip [ Источник HDTV 1080p]
Формат: AVI
Видео кодек: XviD
Аудио кодек: AC3
Видео: 704x400 (1.76:1), 25 fps, XviD build 73 ~1499 kbps avg, 0.21 bit/pixel
Аудио: 48 kHz, AC3 Dolby Digital, 2/0 (L,R) ch, ~192.00 kbps avg
General
Complete name                       : D:\Нелюбимый\Nelyubimii.s01e01.2011.SATRip.RG.Russkie.serialy.avi
Format                              : AVI
Format/Info                         : Audio Video Interleave
File size                           : 531 MiB
Duration                            : 43mn 38s
Overall bit rate                    : 1 702 Kbps
Writing application                 : VirtualDubMod 1.5.10.3 | www.virtualdub-fr.org || (build 2550/release)
Writing library                     : VirtualDubMod build 2550/release

Video
ID                                  : 0
Format                              : MPEG-4 Visual
Format profile                      : Advanced [email protected]
Format settings, BVOP               : 2
Format settings, QPel               : No
Format settings, GMC                : No warppoints
Format settings, Matrix             : Custom
Codec ID                            : XVID
Codec ID/Hint                       : XviD
Duration                            : 43mn 38s
Bit rate                            : 1 500 Kbps
Width                               : 704 pixels
Height                              : 400 pixels
Display aspect ratio                : 16:9
Frame rate                          : 25.000 fps
Color space                         : YUV
Chroma subsampling                  : 4:2:0
Bit depth                           : 8 bits
Scan type                           : Progressive
Compression mode                    : Lossy
Bits/(Pixel*Frame)                  : 0.213
Stream size                         : 468 MiB (88%)
Writing library                     : XviD 73

Audio
ID                                  : 1
Format                              : AC-3
Format/Info                         : Audio Coding 3
Mode extension                      : CM (complete main)
Format settings, Endianness         : Big
Codec ID                            : 2000
Duration                            : 43mn 38s
Bit rate mode                       : Constant
Bit rate                            : 192 Kbps
Channel(s)                          : 2 channels
Channel positions                   : Front: L R
Sampling rate                       : 48.0 KHz
Bit depth                           : 16 bits
Compression mode                    : Lossy
Stream size                         : 59.9 MiB (11%)
Alignment                           : Split accross interleaves
Interleave, duration                : 40 ms (1.00 video frame)
Interleave, preload duration        : 500 ms
Сравнение с этой раздачей ...3601335
http://screenshotcomparison.com/comparison/115079/picture:7


Трекер:  [ 14-Июн-2018 18:12 ]

  

Скачать .torrent

Размер .torrent файла 11 KB


Размер: 2.06 GB
Хэш (hash) релиза: 3828cfbe48bb89746fc9ce1a91eaf0368a6f0702
Подписка на обновления:

Еще никто не оставлял запись к записи скачать торрент Нелюбимый Сезон: 1 . Будь первым!

!Обратная связь