The Driver | My Fight, Your Fight by Ronda Rousey EPUB | Saffron Burrows

Скачать через торрент Наступит рассвет Сезон: 1 Фильм бесплатно в хорошем качестве torrent

Скачивайте на UnionPeer.org фильмы через торрент без регистрации. Новинки кино в хорошем качестве через торрент. На UnionPeer.org можно скачать через торрент фильмы 2014 и 2015 годов. Самые новые фильмы.

Скачать торрент Наступит рассвет Сезон: 1 бесплатно через .torrent фильм мультфильм сериал

Статистика раздачи
Размер:  2.05 GB   |    Зарегистрирован:  7 дней   |    .torrent скачан:  47 раз   |   
Раздают:  1  
   
загрузка...
 
Автор Сообщение

Galfimbul

avatar Galfimbul


Наступит рассвет
Год выпуска: 2017
Производство: «Кинокомпания УПС»
Жанр: Мелодрама
Продолжительность: ~ 43 мин.
Субтитры: Украинские вшитые (обрезаны)
Режиссер: Елена Яковлева (IV)
В ролях: Любовь Константинова, Олег Гаас, Екатерина Семёнова, Юлия Амелькина, Ольга Радчук, Артём Позняк, Виталина Библив, Ирина Мельник, Виктор Сарайкин, Валентин Томусяк, Алексей Смолка, Николай Боклан, Полина Василина, Марта Логачёва, Мила Сивацкая, Андрей Титов, Павел Тупиков, Пётр Крылов (II), Александра Сизоненко, Оксана Жданова, Александра Киреева и др.
Описание: Скромная девушка Аня безумно любит Максима. В паре великолепные отношения и кажется, что подобная идиллия будет продолжаться всегда. Но на пути влюбленных появляется подруга детства юноши Вика, которая всегда любила молодого человека и имеет на его счет особые виды...



Релиз группы
Семпл
Кино-Театр
Качество:SATRip
Формат: AVI
Видео кодек: XviD
Аудио кодек: AC3
Видео: 704x336 (2.10:1), 25 fps, XviD build 73 ~1499 kbps avg, 0.25 bit/pixel
Аудио: 48 kHz, MPEG Layer 3, 1 ch, ~128.00 kbps avg
General
Complete name                       : D:\Наступит рассвет\Nastupit.rassvet.s01e01.2017.SATRip.RG.Russkie.serialy.avi
Format                              : AVI
Format/Info                         : Audio Video Interleave
File size                           : 506 MiB
Duration                            : 43mn 12s
Overall bit rate                    : 1 638 Kbps
Writing application                 : VirtualDubMod 1.5.10.3 | www.virtualdub-fr.org || (build 2550/release)
Writing library                     : VirtualDubMod build 2550/release

Video
ID                                  : 0
Format                              : MPEG-4 Visual
Format profile                      : Advanced [email protected]
Format settings, BVOP               : 2
Format settings, QPel               : No
Format settings, GMC                : No warppoints
Format settings, Matrix             : Custom
Codec ID                            : XVID
Codec ID/Hint                       : XviD
Duration                            : 43mn 12s
Bit rate                            : 1 500 Kbps
Width                               : 704 pixels
Height                              : 336 pixels
Display aspect ratio                : 2.095
Frame rate                          : 25.000 fps
Color space                         : YUV
Chroma subsampling                  : 4:2:0
Bit depth                           : 8 bits
Scan type                           : Progressive
Compression mode                    : Lossy
Bits/(Pixel*Frame)                  : 0.254
Stream size                         : 463 MiB (92%)
Writing library                     : XviD 73

Audio
ID                                  : 1
Format                              : MPEG Audio
Format version                      : Version 1
Format profile                      : Layer 3
Codec ID                            : 55
Codec ID/Hint                       : MP3
Duration                            : 43mn 12s
Bit rate mode                       : Constant
Bit rate                            : 128 Kbps
Channel(s)                          : 1 channel
Sampling rate                       : 48.0 KHz
Compression mode                    : Lossy
Stream size                         : 39.6 MiB (8%)
Alignment                           : Aligned on interleaves
Interleave, duration                : 40 ms (1.00 video frame)
Interleave, preload duration        : 504 ms
Writing library                     : LAME3.99r
Encoding settings                   : -m m -V 4 -q 2 -lowpass 20.5 -b 128


Трекер:  [ 14-Июн-2018 18:12 ]

  

Скачать .torrent

Размер .torrent файла 11 KB


Размер: 2.05 GB
Хэш (hash) релиза: d05cbf5b30cfe09dc8fdb07c9ac2aafe0baf2873
Подписка на обновления:

Еще никто не оставлял запись к записи скачать торрент Наступит рассвет Сезон: 1 . Будь первым!

!Обратная связь