BLACK SAILS | Avengers: Infinity War (2018) | The Hornets Nest

Скачать через торрент Нежная зима Миксер и Елочка Фильм бесплатно в хорошем качестве torrent

Скачивайте на UnionPeer.org фильмы через торрент без регистрации. Новинки кино в хорошем качестве через торрент. На UnionPeer.org можно скачать через торрент фильмы 2014 и 2015 годов. Самые новые фильмы.

Скачать торрент Нежная зима Миксер и Елочка бесплатно через .torrent фильм мультфильм сериал

Статистика раздачи
Размер:  2.46 GB   |    Зарегистрирован:  7 дней   |    .torrent скачан:  35 раз   |   
Раздают:  1  
   
загрузка...
 
Автор Сообщение

Galfimbul

avatar Galfimbul


Нежная зима
Год выпуска: 2005
Производство: «Студия "Позитив"»
Жанр: Мелодрама
Продолжительность: ~ 51 мин.
Субтитры: Отсутствуют
Режиссер: Ирина Волох, Анна Пармас
В ролях: Игорь Ботвин, Владислава Назарова, Анатолий Кот, Сергей Дьячков, Юлия Джербинова, Борис Хвошнянский, Светлана Боровская, Юрий Стоянов, Эвелина Сакуро, Ольга Нефёдова, Семён Спивак, Светлана Кузьмина, Юрий Вутто, Ирина Гаркуша, Наталья Данилова, Александр Завьялов, Андрей Перепечко, Нина Пискарёва, Михаил Трясоруков, Ольга Шанцына, Андрей Шарков, Ирина Полянская и др.
Описание: В центре сюжета - история двух молодых людей - Сергея Микоши (Миксера) и Лены Прохоровой (Елочки). Сергей - очень хороший актер, но невостребованный. В детстве он снялся в нашумевшем фильме, и, казалось, успешная актерская судьба ему в будущем обеспечена, но этого не случилось, пока им не заинтересовался известный кинорежиссер Тарханов. И еще одно обстоятельство переворачивает судьбу главного героя - знакомство с работницей фотоателье Елочкой. У них любовь с первого взгляда. Но на пути к счастью стоит "человек-калькулятор", прагматичный жених Елочки. И все это происходит под Новый год, когда люди загадывают желания, которые должны сбыться.



Релиз группы
Семпл
Кино-Театр
Качество:SATRip [ Источник DVB]
Формат: AVI
Видео кодек: XviD
Аудио кодек: AC3
Видео: 704x400 (1.76:1), 25 fps, XviD build 73 ~1499 kbps avg, 0.21 bit/pixel
Аудио: 48 kHz, AC3 Dolby Digital, 2/0 (L,R) ch, ~192.00 kbps avg
General
Complete name                       : D:\Нежная зима\Nejnaya.zima.s01e01.2005.SATRip.RG.Russkie.serialy.avi
Format                              : AVI
Format/Info                         : Audio Video Interleave
File size                           : 623 MiB
Duration                            : 51mn 12s
Overall bit rate                    : 1 701 Kbps
Writing application                 : VirtualDubMod 1.5.10.3 | www.virtualdub-fr.org || (build 2550/release)
Writing library                     : VirtualDubMod build 2550/release

Video
ID                                  : 0
Format                              : MPEG-4 Visual
Format profile                      : Advanced [email protected]
Format settings, BVOP               : 2
Format settings, QPel               : No
Format settings, GMC                : No warppoints
Format settings, Matrix             : Custom
Codec ID                            : XVID
Codec ID/Hint                       : XviD
Duration                            : 51mn 12s
Bit rate                            : 1 500 Kbps
Width                               : 704 pixels
Height                              : 400 pixels
Display aspect ratio                : 16:9
Frame rate                          : 25.000 fps
Color space                         : YUV
Chroma subsampling                  : 4:2:0
Bit depth                           : 8 bits
Scan type                           : Progressive
Compression mode                    : Lossy
Bits/(Pixel*Frame)                  : 0.213
Stream size                         : 549 MiB (88%)
Writing library                     : XviD 73

Audio
ID                                  : 1
Format                              : AC-3
Format/Info                         : Audio Coding 3
Mode extension                      : CM (complete main)
Format settings, Endianness         : Big
Codec ID                            : 2000
Duration                            : 51mn 12s
Bit rate mode                       : Constant
Bit rate                            : 192 Kbps
Channel(s)                          : 2 channels
Channel positions                   : Front: L R
Sampling rate                       : 48.0 KHz
Bit depth                           : 16 bits
Compression mode                    : Lossy
Stream size                         : 70.3 MiB (11%)
Alignment                           : Split accross interleaves
Interleave, duration                : 40 ms (1.00 video frame)
Interleave, preload duration        : 500 ms
Сравнение с этой раздачей ...1721099
http://screenshotcomparison.com/comparison/115192/picture:7


Трекер:  [ 14-Июн-2018 18:12 ]

  

Скачать .torrent

Размер .torrent файла 13 KB


Размер: 2.46 GB
Хэш (hash) релиза: 6184b3fe09524429c5c3f5c1acbb698e63dc3888
Подписка на обновления:

Еще никто не оставлял запись к записи скачать торрент Нежная зима Миксер и Елочка . Будь первым!

!Обратная связь