CyberLink PowerDVD Ultra 18 0 1619 62 Pre Cracked [CracksNow] | Gwiezdne Wojny: Wojny Klonó... | Más detalles

Скачать через торрент Ярость Бахамута бесплатно Аниме Все серии на русском torrent

Статистика раздачи
Размер:  44.47 GB   |    Зарегистрирован:  2 месяца 4 дня   |    .torrent скачан:  31 раз   |   
Раздают:  1  
   
загрузка...
 
Автор Сообщение

Galfimbul

avatar Galfimbul


Ярость Бахамута (ТВ-2): Непорочная душа / Shingeki no Bahamut: Virgin Soul
Страна: Япония
Год выпуска: 2017
Жанр: приключения, фэнтези
Тип: TV
Продолжительность: 24 эп. по 25 мин.
Режиссер: Сато Кэйити
Студия: MAPPA
Описание: Прошло 10 лет с тех пор, как Бахамут был повержен, однако равновесие в мире нарушает молодой и амбициозный король Чариос XVII, похитивший оружие богов и с помощью него поработивший демонов, превратив их в рабов и слуг для людей, Чариос намеревается победить и богов, чтобы сделать людской род сильнейшим над всеми. Одновременно сюжет завязывается вокруг Нины Дранго, молодой девушке, решившей прибыть в столицу людей на заработки. Там она случайно знакомится с Азазелем, лидером повстанцев демонов и Мугаро, таинственное дитя, обладающее силой бога. Они втягивают Нину в сложный круговорот событий.© dulamas, World Art
Качество: BDRip
Тип релиза: Без хардсаба
Формат видео: MKV
Наличие линковки: Нет
Релиз/Автор рипа: Moozzi2
Видео: MPEG4(x264); 8 bit; 1920x1080; ~6500 Кбит/сек; 23.976 кадра/сек
Аудио JAP 1 (Стерео): FLAC; 48kHz; 2ch; ~1400 Кбит/сек
Аудио JAP 2 (5.1): FLAC; 48kHz; 6ch; ~3300 Кбит/сек
Аудио JAP 3 (Комментарии): AC-3; 48kHz; 2ch; 192 Кбит/сек
Субтитры RUS: ASS; внешние; Перевод: AleX_MytH, Zottig
GeneralUnique ID : 214514398552607843564343812155775819590 (0xA161F86A009E78239F1D441EE6AA9F46)Complete name : \Shingeki no Bahamut Virgin Soul [BDRip] [1080p]\[Moozzi2] Shingeki no Bahamut Virgin Soul - 01 (BD 1920x1080 x.264 3Audio).mkvFormat : MatroskaFormat version : Version 4 / Version 2File size : 1.94 GiBDuration : 24 min 18 sOverall bit rate mode : VariableOverall bit rate : 11.4 Mb/sEncoded date : UTC 2018-01-25 23:49:53Writing application : mkvmerge v9.2.0 ('Photograph') 64bitWriting library : libebml v1.3.3 + libmatroska v1.4.4

VideoID : 1Format : AVCFormat/Info : Advanced Video CodecFormat profile : [email protected] settings : CABAC / 5 Ref FramesFormat settings, CABAC : YesFormat settings, ReFrames : 5 framesCodec ID : V_MPEG4/ISO/AVCDuration : 24 min 18 sBit rate : 6 559 kb/sWidth : 1 920 pixelsHeight : 1 080 pixelsDisplay aspect ratio : 16:9Frame rate mode : ConstantFrame rate : 23.976 (24000/1001) FPSColor space : YUVChroma subsampling : 4:2:0Bit depth : 8 bitsScan type : ProgressiveBits/(Pixel*Frame) : 0.132Stream size : 1.11 GiB (57%)Writing library : x264 core 152 r2851 ba24899Encoding settings : cabac=1 / ref=5 / deblock=1:1:1 / analyse=0x3:0x113 / me=umh / subme=9 / psy=1 / psy_rd=1.00:0.00 / mixed_ref=1 / me_range=32 / chroma_me=1 / trellis=0 / 8x8dct=1 / cqm=0 / deadzone=21,11 / fast_pskip=0 / chroma_qp_offset=-2 / threads=24 / lookahead_threads=2 / sliced_threads=0 / nr=0 / decimate=1 / interlaced=0 / bluray_compat=0 / stitchable=1 / constrained_intra=0 / bframes=3 / b_pyramid=2 / b_adapt=2 / b_bias=0 / direct=1 / weightb=1 / open_gop=0 / weightp=1 / keyint=240 / keyint_min=23 / scenecut=40 / intra_refresh=0 / rc_lookahead=40 / rc=crf / mbtree=1 / crf=16.0 / qcomp=0.60 / qpmin=0 / qpmax=69 / qpstep=4 / ip_ratio=1.40 / aq=1:1.00Language : JapaneseDefault : YesForced : No

Audio #1ID : 2Format : FLACFormat/Info : Free Lossless Audio CodecCodec ID : A_FLACDuration : 24 min 18 sBit rate mode : VariableBit rate : 1 394 kb/sChannel(s) : 2 channelsChannel positions : Front: L RSampling rate : 48.0 kHzFrame rate : 11.719 FPS (4096 SPF)Bit depth : 24 bitsStream size : 242 MiB (12%)Writing library : libFLAC 1.3.2 (UTC 2017-01-01)Language : JapaneseDefault : YesForced : No

Audio #2ID : 3Format : FLACFormat/Info : Free Lossless Audio CodecCodec ID : A_FLACDuration : 24 min 18 sBit rate mode : VariableBit rate : 3 286 kb/sChannel(s) : 6 channelsChannel positions : Front: L C R, Side: L R, LFESampling rate : 48.0 kHzFrame rate : 11.719 FPS (4096 SPF)Bit depth : 24 bitsStream size : 571 MiB (29%)Writing library : libFLAC 1.3.2 (UTC 2017-01-01)Language : JapaneseDefault : NoForced : No

Audio #3ID : 4Format : AC-3Format/Info : Audio Coding 3Codec ID : A_AC3Duration : 24 min 18 sBit rate mode : ConstantBit rate : 192 kb/sChannel(s) : 2 channelsChannel positions : Front: L RSampling rate : 48.0 kHzFrame rate : 31.250 FPS (1536 SPF)Bit depth : 16 bitsCompression mode : LossyStream size : 33.4 MiB (2%)Language : JapaneseService kind : Complete MainDefault : NoForced : No

...5385143
...5389433
BDRip, 1080p

...5469581
1080p

...5486201
BDRip

01. Красный дракон
02. Обездоленные
03. Сближение
04. Порождающая пламя
05. Непокорные
06. Праздник в Анатэ
07. День победы
08. День поражения
09. Всё по-старому
10. Какой она была
11. Объявление войны
12. Большой побег
13. Прощай, оружие!
14. Возвращение домой
15. Город богов. Часть 1
16. Город богов. Часть 2
17. Непорочная душа
18. Непобедимый
19. Потанцуем?
20. С небес в преисподнюю
21. Возмездие
22. Куда дует ветер?
23. Ужас начинается
24. Беги, Нина, Беги


Трекер:  [ 14-Июн-2018 18:01 ]

  

Скачать .torrent

Размер .torrent файла 117 KB


Размер: 44.47 GB
Хэш (hash) релиза: 72b76d14758e7d29b5ed286ac4cffb8ef6886a3b
Подписка на обновления:

Торренты, похожие на Ярость Бахамута скачать торрент

Форум Название Автор Размер S L Добавлен
Аниме | Rips ·· Ярость Бахамута - Истоки / Shingeki no Bahamut - Genesis / Ярость Бахамута: Гeнезис / Ярость Бахамута: Происхождение [TV] [12 из 12] [Без хардсаба] [RUS(int), JAP, SUB] [2014 г., приключения, фэнтези, HDTVRip] [720p] Galfimbul 77800891737.25 GB 0 0 1420123536

17:45

1-Янв-15

Аниме | Rips ·· Ярость Бахамута - Истоки / Shingeki no Bahamut - Genesis / Ярость Бахамута: Гeнезис / Ярость Бахамута: Происхождение [TV] [11 из 12] [Без хардсаба] [RUS(int), JAP, SUB] [2014 г., приключения, фэнтези, HDTVRip] [720p] Galfimbul 71485041846.66 GB 0 0 1419453693

23:41

24-Дек-14

Аниме | Rips ·· Ярость Бахамута - Истоки / Shingeki no Bahamut - Genesis / Ярость Бахамута: Гeнезис / Ярость Бахамута: Происхождение [TV] [9 из 12] [Без хардсаба] [RUS(int), JAP, SUB] [2014 г., приключения, фэнтези, HDTVRip] [720p] Galfimbul 57007751005.31 GB 0 0 1418490538

20:08

13-Дек-14

Аниме | Rips ·· Ярость Бахамута - Истоки / Shingeki no Bahamut - Genesis / Ярость Бахамута: Гeнезис / Ярость Бахамута: Происхождение [TV] [8 из 12] [Без хардсаба] [RUS(int), JAP, SUB] [2014 г., приключения, фэнтези, HDTVRip] [720p] Galfimbul 51203814464.77 GB 0 0 1417716455

21:07

4-Дек-14

Аниме | Rips ·· Ярость Бахамута - Истоки / Shingeki no Bahamut - Genesis / Ярость Бахамута: Гeнезис / Ярость Бахамута: Происхождение [TV] [6 из 12] [Без хардсаба] [RUS(int), JAP, SUB] [2014 г., приключения, фэнтези, HDTVRip] [720p] Galfimbul 34114165603.18 GB 0 0 1417381840

00:10

1-Дек-14

Аниме | Rips ·· Ярость Бахамута - Истоки / Shingeki no Bahamut - Genesis / Ярость Бахамута: Гeнезис / Ярость Бахамута: Происхождение [TV] [01-03 из 12] [Без хардсаба] [RUS(int), JAP, SUB] [2014 г., приключения, фэнтези, HDTVRip] [720p] Galfimbul 16321551511.52 GB 0 0 1415556346

21:05

9-Ноя-14

Аниме | HD Rips ·· Ярость Бахамута: Истоки / Ярость Бахамута: Гeнезис / Shingeki no Bahamut: Genesis [TV] [12 из 12] [без хардсаба] [JAP+SUB] [2014 г., приключения, HDTVRip] [720p] Galfimbul 56896364945.3 GB 0 0 1419941523

15:12

30-Дек-14

Аниме | HD Rips ·· Ярость Бахамута: Истоки / Ярость Бахамута: Гeнезис / Shingeki no Bahamut: Genesis [TV] [11 из 12] [без хардсаба] [JAP+SUB] [2014 г., приключения, HDTVRip] [720p] Galfimbul 51801462634.82 GB 0 0 1419360283

21:44

23-Дек-14

Аниме | HD Rips ·· Ярость Бахамута: Истоки / Ярость Бахамута: Гeнезис / Shingeki no Bahamut: Genesis [TV] [10 из 12] [без хардсаба] [JAP+SUB] [2014 г., приключения, HDTVRip] [720p] Galfimbul 45483791264.24 GB 0 0 1418758749

22:39

16-Дек-14

Аниме | HD Rips ·· Ярость Бахамута: Истоки / Ярость Бахамута: Гeнезис / Shingeki no Bahamut: Genesis [TV] [9 из 12] [без хардсаба] [JAP+SUB] [2014 г., приключения, HDTVRip] [720p] Galfimbul 40154088923.74 GB 0 0 1418152009

22:06

9-Дек-14

Аниме | HD Rips ·· Ярость Бахамута: Истоки / Ярость Бахамута: Гeнезис / Shingeki no Bahamut: Genesis [TV] [8 из 12] [без хардсаба] [JAP+SUB] [2014 г., приключения, HDTVRip] [720p] Galfimbul 35784855713.33 GB 0 0 1417583152

08:05

3-Дек-14

Аниме | HD Rips ·· Ярость Бахамута: Истоки / Ярость Бахамута: Гeнезис / Shingeki no Bahamut: Genesis [TV] [8 из 12] [без хардсаба] [JAP+SUB] [2014 г., приключения, HDTVRip] [720p] Galfimbul 35784855713.33 GB 0 0 1417539975

20:06

2-Дек-14

Аниме | HD Rips ·· Ярость Бахамута: Истоки / Ярость Бахамута: Гeнезис / Shingeki no Bahamut: Genesis [TV] [7 из 12] [без хардсаба] [JAP+SUB] [2014 г., приключения, HDTVRip] [720p] Galfimbul 31406736212.92 GB 0 0 1416936874

20:34

25-Ноя-14

Аниме | HD Rips ·· Ярость Бахамута: Истоки / Ярость Бахамута: Гeнезис / Shingeki no Bahamut: Genesis [TV] [6 из >12] [без хардсаба] [JAP+SUB] [2014 г., приключения, HDTVRip] [720p] Galfimbul 27077508592.52 GB 0 0 1415759873

05:37

12-Ноя-14

Аниме | HD Rips ·· Ярость Бахамута: Истоки / Ярость Бахамута: Гeнезис / Shingeki no Bahamut: Genesis [TV] [5 из >12] [без хардсаба] [JAP+SUB] [2014 г., приключения, HDTVRip] [720p] Galfimbul 22909799132.13 GB 0 0 1415216141

22:35

5-Ноя-14

Аниме | HD Rips ·· Ярость Бахамута: Истоки / Ярость Бахамута: Гeнезис / Shingeki no Bahamut: Genesis [TV] [4 из >12] [без хардсаба] [JAP+SUB] [2014 г., приключения, HDTVRip] [720p] Galfimbul 17622926391.64 GB 0 0 1414523326

22:08

28-Окт-14

Аниме | HD Rips ·· Ярость Бахамута: Истоки / Ярость Бахамута: Гeнезис / Shingeki no Bahamut: Genesis [TV] [3 из >12] [без хардсаба] [JAP+SUB] [2014 г., приключения, HDTVRip] [720p] Galfimbul 13090079701.22 GB 0 0 1413920059

22:34

21-Окт-14

Аниме | HD Rips ·· Ярость Бахамута: Истоки / Ярость Бахамута: Гeнезис / Shingeki no Bahamut: Genesis [TV] [2 из >12] [без хардсаба] [JAP+SUB] [2014 г., приключения, HDTVRip] [720p] Galfimbul 871895001832 MB 0 0 1413301213

18:40

14-Окт-14

Аниме | HD Rips ·· Ярость Бахамута: Гинезис / Ярость Бахамута: Происхождение / Shingeki no Bahamut: Genesis [TV] [без хардсаба] [JAP+SUB] [1 из >12] [2014 г., приключения, HDTVRip] [720p] Galfimbul 414393231395 MB 0 0 1412618492

21:01

6-Окт-14

Еще никто не оставлял запись к записи скачать торрент Ярость Бахамута . Будь первым!

!Обратная связь