add new TV show | Arash Marandi | saison 14, épisode 9

Скачать через торрент Забытый феникс Phoenix Forgotten Фильм бесплатно в хорошем качестве torrent

Скачивайте на UnionPeer.org фильмы через торрент без регистрации. Новинки кино в хорошем качестве через торрент. На UnionPeer.org можно скачать через торрент фильмы 2014 и 2015 годов. Самые новые фильмы.

Скачать торрент Забытый феникс Phoenix Forgotten бесплатно через .torrent фильм мультфильм сериал

Статистика раздачи
Размер:  7.58 GB   |    Зарегистрирован:  7 дней   |    .torrent скачан:  52 раза   |   
Раздают:  1  
   
загрузка...
 
Автор Сообщение

Galfimbul

avatar Galfimbul


Забытый феникс / Phoenix Forgotten

Год выхода: 2017
Жанр: Ужасы, фантастика, триллер, детектив
Страна: США
Перевод: Профессиональный многоголосый | iTunes
Продолжительность: 01:26:47
Режиссер: Джастин Барбер
В ролях: Флоренс Хэртиган, Люк Спенсер Робертс, Челси Лопез, Джастин Мэтьюз, Клинт Джордан, Сид Стриттмэттер, Джанин Джексон, Мэтт Бидел, Ана Дела Крус, МакКензи Фиргенз и др.

О фильме: Софи помнит старшего брата Джоша очень плохо, потому что 20 лет назад, как раз вовремя празднования её шестилетия, вся семья стала свидетелями необычного свечения в небе над Аризоной. После этого Джош нашёл единомышленников, и ребята решили выяснить истинную природу странных огней. Несколько дней спустя трое подростков бесследно пропали. Теперь уже взрослой Софи пытается узнать, что же случилось с её братом много лет назад.



Файл
Качество: BDRip 1080p
Видео: MPEG-4 AVC, 1920x1080, 11500 kbps, 23,976 fps
Звук#1: русский, AC3, 6 ch, 48 kHz, 384 kbps | iTunes
Звук#2: английский, AC3, 6 ch, 48 kHz, 640 kbps | оригинал
Субтитры: английские
Общее
Уникальный идентификатор : 230497704240218759880506381968068558203 (0xAD683E39E492C21CBCE0ED5C9D83BD7B)
Полное имя : G:DelugePhoenix.Forgotten.2017BDRip1080p.mkv
Формат : Matroska
Версия формата : Version 4 / Version 2
Размер файла : 7,58 Гбайт
Продолжительность : 1 ч. 26 м.
Общий поток : 12,5 Мбит/сек
Дата кодирования : UTC 2018-06-14 10:08:12
Программа кодирования : mkvmerge v9.5.0 ('Quiet Fire') 64bit
Библиотека кодирования : libebml v1.3.4 + libmatroska v1.4.5

Видео
Идентификатор : 1
Формат : AVC
Формат/Информация : Advanced Video Codec
Профиль формата : [email protected]
Настройки формата : CABAC / 4 Ref Frames
Параметр CABAC формата : Да
Параметр RefFrames формата : 4 кадра
Идентификатор кодека : V_MPEG4/ISO/AVC
Продолжительность : 1 ч. 26 м.
Битрейт : 11,5 Мбит/сек
Ширина : 1920 пикселей
Высота : 1080 пикселей
Соотношение сторон : 16:9
Режим частоты кадров : Постоянный
Частота кадров : 23,976 (24000/1001) кадра/сек
Цветовое пространство : YUV
Субдискретизация насыщенности : 4:2:0
Битовая глубина : 8 бит
Тип развёртки : Прогрессивная
Бит/(Пиксели*Кадры) : 0.231
Размер потока : 6,96 Гбайт (92%)
Библиотека кодирования : x264 core 155 r2901M 7d0ff22
Настройки программы : cabac=1 / ref=4 / deblock=1:-2:-2 / analyse=0x3:0x113 / me=umh / subme=11 / psy=1 / psy_rd=1.00:0.00 / mixed_ref=1 / me_range=32 / chroma_me=1 / trellis=2 / 8x8dct=1 / cqm=0 / deadzone=21,11 / fast_pskip=0 / chroma_qp_offset=-2 / threads=9 / lookahead_threads=2 / sliced_threads=0 / nr=0 / decimate=0 / interlaced=0 / bluray_compat=0 / constrained_intra=0 / bframes=10 / b_pyramid=2 / b_adapt=2 / b_bias=0 / direct=3 / weightb=1 / open_gop=0 / weightp=2 / keyint=240 / keyint_min=24 / scenecut=40 / intra_refresh=0 / rc_lookahead=120 / rc=2pass / mbtree=0 / bitrate=11500 / ratetol=1.0 / qcomp=0.70 / qpmin=0 / qpmax=69 / qpstep=4 / cplxblur=20.0 / qblur=0.5 / vbv_maxrate=62500 / vbv_bufsize=78125 / nal_hrd=none / filler=0 / ip_ratio=1.40 / pb_ratio=1.30 / aq=1:1.00
Default : Да
Forced : Нет

Аудио #1
Идентификатор : 2
Формат : AC-3
Формат/Информация : Audio Coding 3
Идентификатор кодека : A_AC3
Продолжительность : 1 ч. 26 м.
Вид битрейта : Постоянный
Битрейт : 384 Кбит/сек
Каналы : 6 каналов
Расположение каналов : Front: L C R, Side: L R, LFE
Частота : 48,0 КГц
Частота кадров : 31,250 кадров/сек (1536 SPF)
Битовая глубина : 16 бит
Метод сжатия : С потерями
Размер потока : 238 Мбайт (3%)
Язык : Russian
Default : Да
Forced : Нет

Аудио #2
Идентификатор : 3
Формат : AC-3
Формат/Информация : Audio Coding 3
Идентификатор кодека : A_AC3
Продолжительность : 1 ч. 26 м.
Вид битрейта : Постоянный
Битрейт : 640 Кбит/сек
Каналы : 6 каналов
Расположение каналов : Front: L C R, Side: L R, LFE
Частота : 48,0 КГц
Частота кадров : 31,250 кадров/сек (1536 SPF)
Битовая глубина : 16 бит
Метод сжатия : С потерями
Размер потока : 397 Мбайт (5%)
Язык : English
Default : Нет
Forced : Нет

Текст
Идентификатор : 4
Формат : UTF-8
Идентификатор кодека : S_TEXT/UTF8
Идентификатор кодека/Информация : UTF-8 Plain Text
Продолжительность : 1 ч. 23 м.
Битрейт : 89 бит/сек
ElementCount : 1484
Размер потока : 55,0 Кбайт (0%)
Язык : English
Default : Да
Forced : Нет

Меню
00:00:00.000 : :00:00:00.000
00:02:51.463 : :00:02:51.463
00:05:52.060 : :00:05:52.060
00:09:26.399 : :00:09:26.399
00:12:09.604 : :00:12:09.604
00:14:51.849 : :00:14:51.849
00:18:09.714 : :00:18:09.714
00:20:33.357 : :00:20:33.357
00:23:52.640 : :00:23:52.640
00:27:32.484 : :00:27:32.484
00:29:49.746 : :00:29:49.746
00:32:22.899 : :00:32:22.899
00:35:52.567 : :00:35:52.567
00:37:49.642 : :00:37:49.642
00:40:34.891 : :00:40:34.891
00:44:01.264 : :00:44:01.264
00:46:37.628 : :00:46:37.628
00:49:23.419 : :00:49:23.419
00:52:57.800 : :00:52:57.800
00:54:51.163 : :00:54:51.163
00:57:02.085 : :00:57:02.085
01:01:04.578 : :01:01:04.578
01:05:02.565 : :01:05:02.565
01:08:44.495 : :01:08:44.495
01:13:22.440 : :01:13:22.440
01:16:10.524 : :01:16:10.524
01:18:55.648 : :01:18:55.648
01:20:19.815 : :01:20:19.815
Источник http://blator.org

Трекер:  [ 14-Июн-2018 16:30 ]

  

Скачать .torrent

Размер .torrent файла 19 KB


Размер: 7.58 GB
Хэш (hash) релиза: b5af90e78764225c3b2668875c77459b2596ccca
Подписка на обновления:

Еще никто не оставлял запись к записи скачать торрент Забытый феникс Phoenix Forgotten . Будь первым!

!Обратная связь