На французском языке | Frames jokes | Always HD Quality  Latest Movie Download Just Click Here And Visit

Скачать через торрент Жюдекс Judex Фильм бесплатно в хорошем качестве torrent

Скачивайте на UnionPeer.org фильмы через торрент без регистрации. Новинки кино в хорошем качестве через торрент. На UnionPeer.org можно скачать через торрент фильмы 2014 и 2015 годов. Самые новые фильмы.

Скачать торрент Жюдекс Judex бесплатно через .torrent фильм мультфильм сериал

Статистика раздачи
Размер:  14.06 GB   |    Зарегистрирован:  2 месяца 3 дня   |    .torrent скачан:  17 раз   |   
Раздают:  1  
   
загрузка...
 
Автор Сообщение

Galfimbul

avatar Galfimbul


Жюдекс / Judex / Criterion Collection#710
Страна:Франция, ИталияСтудия:Comptoir Français du Film Production (CFFP), Filmes Cinematografica.
Жанр:Боевик, Драма, Криминал
Год выпуска:1963
Продолжительность:01:37:39Производство:The Criterion Collection #710
Перевод 1:Авторский (одноголосый закадровый) Владимир Штейн
Перевод 2:Одноголосый (закадровый) dimadima
Субтитры:Английские, РусскиеОригинальная аудиодорожка:Французский
Премьера (мир):4.12.1963
Режиссер:Жорж Франжю / Georges FranjuВ ролях:
Чаннинг Поллок, Франсин Берже, Эдит Скоб, Тео Сарапо, Сильва Кошина, Рене Женен, Роже Фраде, Андре Мельес, Филипп Марёй, Луиджи КортезеОписание:
Фавро, недобросовестный банкир, получает угрожающее письмо от некого Жюдекса, который требует возвратить деньги обманутым вкладчикам. Тот отказывается и вроде бы умирает после полуночного тоста на маскараде. Но на самом деле он схвачен и заперт Жюдексом. Ему сохраняют жизнь, когда дочь банкира Жаклин отказывается от наследства. Тем временем Диана Монти, прежняя гувернантка, похищает Жаклин, чтобы попытаться получить деньги банкира.
Доп. информация:Исходник найден в сети.Русский звук и субтитры с трекера.
Огромное Спасибо Всем, без чьей помощи этот релиз не состоялся бы!
Сценарий:Артур Бернед, Луи Фейад, Jacques ChampreuxПродюсер:Роберт де Нель
Оператор:Марсель ФрадетальКомпозитор:Морис Жарр
Художник:Робер Джордани, Christiane Courcelles
Монтаж:Жильбер Нато
Жорж Франжю-http://ru.wikipedia.org/wiki/Франжю,_ЖоржФильм-http://fr.wikipedia.org/wiki/Judex_(film,_1963)
PgcDemux 1.2.0.5 -> разделение компонентов диска на файлы.
BeHappy + BeLight - AC3 -> Wav.
Sound Forge pro 10 -> синхронизация звука.
Subtitle Workshop, MaestroSBT, DVD SubEdit -> (субтитры). MuxMan DVD authoring Professional -> мультиплексирование и авторинг.
DVDRemake Pro 3.6.4 -> реавторинг DVD.
DVD Shrink 3.2 -> Сэмпл.


--New 2K digital restoration
--Interview from 2007 with cowriter Jacques Champreux
--Interview from 2012 with actor Francine Berge
--Franju le visionnaire, a fifty-minute program from 1998 on director Georges Franju’s career
--Two short films by Franju: Hotel des Invalides (1951), about the Paris military complex, and Le grand Melies (1952), about director Georges Melies
--New English subtitle translation
Меню:Английский, анимированное, озвученное.
Сэмпл Диск 1:
Сэмпл Диск 2:
Тип релиза:DVD9 (Custom) + DVD9
Контейнер:DVD-Video
Видео:NTSC 16:9 (720x480) VBR, Auto Letterboxed, 8402 Кбит/сек, 23,976 (24000/1001) кадра/секАудио 1:Русский:AC3, 2 ch, 48.0 KHz, 192 Кбит/сек / Авторский (одноголосый закадровый) Владимир Штейн
Аудио 2:Русский:AC3, 2 ch, 48.0 KHz, 192 Кбит/сек / Одноголосый (закадровый) dimadima
Аудио 3:Французский:AC3, 1 ch, 48.0 KHz, 384 Кбит/сек / Оригинал
Формат субтитров:prerendered (DVD/IDX+SUB)
Title: диск 1
Size: 6.59 Gb ( 6 913 060,00 KBytes ) - DVD-9
Enabled regions: 1, 2, 3, 4, 5, 6, 7, 8

VTS_02 :
Play Length: 01:37:39
Video: NTSC 16:9 (720x480) VBR, Auto Letterboxed
Audio:
Russian (Dolby AC3, 2 ch)
Russian (Dolby AC3, 2 ch)
Francais (Dolby AC3, 1 ch)
Subtitles:
English
Russian

VTS_03 :
Play Length: 00:00:20
Video: NTSC 16:9 (720x480) VBR, Auto Pan&Scan

VTS_04 :
Play Length: 00:00:00
Video: NTSC 4:3 (720x480) VBR
[b]Title: диск 2
Size: 7.47 Gb ( 7 829 724,00 KBytes ) - DVD-9
Enabled regions: 1, 2, 3, 4, 5, 6, 7, 8

VTS_02 :
Play Length: 00:31:21
Video: NTSC 4:3 (720x480) VBR
Audio:
Francais (Dolby AC3, 1 ch)
Subtitles:
English

VTS_03 :
Play Length: 00:10:56
Video: NTSC 16:9 (720x480) VBR, Auto Letterboxed
Audio:
Francais (Dolby AC3, 1 ch)
Subtitles:
English

VTS_04 :
Play Length: 00:22:24
Video: NTSC 4:3 (720x480) VBR
Audio:
Francais (Dolby AC3, 1 ch)
Subtitles:
English

VTS_05 :
Play Length: 00:11:57
Video: NTSC 4:3 (720x480) VBR
Audio:
Francais (Dolby AC3, 1 ch)
Subtitles:
English

VTS_06 :
Play Length: 00:51:28
Video: NTSC 4:3 (720x480) VBR
Audio:
Francais (Dolby AC3, 1 ch)
Subtitles:
English

VTS_07 :
Play Length: 00:00:00
Video: NTSC 4:3 (720x480) VBR
[b]Общее
Полное имя : F:\Judex DVD-9_Custom+DVD-9_Criterion#710\диск 1\VIDEO_TS\VTS_02_1.VOB
Формат : MPEG-PS
Размер файла : 1024 Мбайт
Продолжительность : 15 м. 18 с.
Режим общего битрейта : Переменный
Общий поток : 9356 Кбит/сек

Аудио #1
Идентификатор : 189 (0xBD)-128 (0x80)
Формат : AC-3
Формат/Информация : Audio Coding 3
Режим смешивания : DVD-Video
Продолжительность : 15 м. 17 с.
Вид битрейта : Постоянный
Битрейт : 192 Кбит/сек
Каналы : 2 канала
Расположение каналов : Front: L R
Частота : 48,0 КГц
Частота кадров : 31,250 кадров/сек (1536 SPF)
Битовая глубина : 16 бит
Метод сжатия : С потерями
Размер потока : 21,0 Мбайт (2%)
ServiceKind/String : Complete Main

Аудио #2
Идентификатор : 189 (0xBD)-129 (0x81)
Формат : AC-3
Формат/Информация : Audio Coding 3
Режим смешивания : DVD-Video
Продолжительность : 15 м. 17 с.
Вид битрейта : Постоянный
Битрейт : 192 Кбит/сек
Каналы : 2 канала
Расположение каналов : Front: L R
Частота : 48,0 КГц
Частота кадров : 31,250 кадров/сек (1536 SPF)
Битовая глубина : 16 бит
Метод сжатия : С потерями
Размер потока : 21,0 Мбайт (2%)
ServiceKind/String : Complete Main

Аудио #3
Идентификатор : 189 (0xBD)-130 (0x82)
Формат : AC-3
Формат/Информация : Audio Coding 3
Режим смешивания : DVD-Video
Продолжительность : 15 м. 17 с.
Вид битрейта : Постоянный
Битрейт : 384 Кбит/сек
Каналы : 1 канал
Расположение каналов : Front: C
Частота : 48,0 КГц
Частота кадров : 31,250 кадров/сек (1536 SPF)
Битовая глубина : 16 бит
Метод сжатия : С потерями
Размер потока : 42,0 Мбайт (4%)
ServiceKind/String : Complete Main
Текст #1
Идентификатор : 189 (0xBD)-32 (0x20)
Формат : RLE
Формат/Информация : Run-length encoding
Режим смешивания : DVD-Video

Текст #2
Идентификатор : 189 (0xBD)-33 (0x21)
Формат : RLE
Формат/Информация : Run-length encoding
Режим смешивания : DVD-Video
[b]Общее
Полное имя : F:\Judex DVD-9_Custom+DVD-9_Criterion#710\диск 2\VIDEO_TS\VTS_02_1.VOB
Формат : MPEG-PS
Размер файла : 1024 Мбайт
Продолжительность : 17 м. 32 с.
Режим общего битрейта : Переменный
Общий поток : 8163 Кбит/сек

Аудио
Идентификатор : 189 (0xBD)-128 (0x80)
Формат : AC-3
Формат/Информация : Audio Coding 3
Режим смешивания : DVD-Video
Продолжительность : 17 м. 32 с.
Вид битрейта : Постоянный
Битрейт : 192 Кбит/сек
Каналы : 1 канал
Расположение каналов : Front: C
Частота : 48,0 КГц
Частота кадров : 31,250 кадров/сек (1536 SPF)
Битовая глубина : 16 бит
Метод сжатия : С потерями
Размер потока : 24,1 Мбайт (2%)
ServiceKind/String : Complete Main

Текст
Идентификатор : 189 (0xBD)-32 (0x20)
Формат : RLE
Формат/Информация : Run-length encoding
Режим смешивания : DVD-Video
Продолжительность : 17 м. 27 с.
Задержка видео : 767 мс.
<div class="sp-wrap">
<div class="sp-head folded">Полиграфия
</div>
<div class="sp-body">





</div>
</div>
[b]Релиз:
Уважаемые пользователи!Найдите пару минут поблагодарить релизера и высказаться в топике раздачи.
Ваше мнение - бальзам для раздающего и пища для ума остальным пользователям.
Мои раздачи

Трекер:  [ 14-Июн-2018 16:01 ]

  

Скачать .torrent

Размер .torrent файла 74 KB


Размер: 14.06 GB
Хэш (hash) релиза: cfac46fa19615e97007c26b80df4595bbed055e7
Подписка на обновления:

Еще никто не оставлял запись к записи скачать торрент Жюдекс Judex . Будь первым!

!Обратная связь