J.M. Specht | Patrick Melrose | 0 Gangster

Скачать через торрент музыку бесплатно без регистрации torrent

Статистика раздачи
Размер:  307 MB   |    Зарегистрирован:  7 дней   |    .torrent скачан:  14 раз   |   
Раздают:  1  
   
загрузка...
 
Автор Сообщение

Galfimbul

avatar Galfimbul


Decoded Feedback / Phoenix

Жанр: EBM, Dark Electro
Носитель: CD, EP
Страна-производитель диска (релиза): Germany
Год издания: 2002

Издатель (лейбл): Out Of Line
Номер по каталогу: OUT 099
Страна исполнителя (группы): Canada
Аудиокодек: FLAC (*.flac)

Тип рипа: image+.cue
Битрейт аудио: lossless
Продолжительность: 00:40:23
Источник (релизер): Rodexx
Наличие сканов в содержимом раздачи: нет

Треклист:
Birth:
1. Phoenix 5:16
2. Euthanasia (Shockwave Mix) 5:22
3. Eternal Dreams 4:30

Resurrection:
4. Phoenix (Sunray Mix By Angels & Agony)
5. Phoenix (Imperative Reaction Remix)
6. Phoenix (Noisex Remix)
7. Phoenix (KiEw Reconstruction)
8. Phoenix (Defcode Club Mix) 5:23
Exact Audio Copy V1.0 beta 3 from 29. August 2011

Отчёт EAC об извлечении, выполненном 8. апреля 2014, 22:26

Decoded Feedback / Phoenix

Дисковод: PIONEER BD-RW BDR-207D Adapter: 2 ID: 1

Режим чтения : ДостоверностьИспользование точного потока : ДаОтключение кэша аудио : ДаИспользование указателей C2 : Нет

Коррекция смещения при чтении : 667Способность читать области Lead-in и Lead-out : НетЗаполнение пропущенных сэмплов тишиной : ДаУдаление блоков с тишиной в начале и конце : НетПри вычислениях CRC использовались нулевые сэмплы : ДаИнтерфейс : Встроенный Win32-интерфейс для Win NT/2000

Выходной формат : Пользовательский кодировщикВыбранный битрейт : 768 kBit/sКачество : ВысокийДобавление ID3-тега : НетУтилита сжатия : C:\Program Files\Exact Audio Copy\FLAC\FLAC.EXEДополнительные параметры : -6 -V -T "ARTIST=%artist%" -T "TITLE=%title%" -T "ALBUM=%albumtitle%" -T "DATE=%year%" -T "TRACKNUMBER=%tracknr%" -T "GENRE=%genre%" -T "COMMENT=%comment%" -T "BAND=%albuminterpret%" -T "ALBUMARTIST=%albuminterpret%" -T "COMPOSER=%composer%" %haslyrics%--tag-from-file=LYRICS="%lyricsfile%"%haslyrics% -T "DISCNUMBER=%cdnumber%" -T "TOTALDISCS=%totalcds%" -T "TOTALTRACKS=%numtracks%" %hascover%--picture="%coverfile%"%hascover% %source% -o %dest%

TOC извлечённого CD

Трек | Старт | Длительность | Начальный сектор | Конечный сектор --------------------------------------------------------------------- 1 | 0:00.00 | 5:16.25 | 0 | 23724 2 | 5:16.25 | 5:22.56 | 23725 | 47930 3 | 10:39.06 | 4:30.72 | 47931 | 68252 4 | 15:10.03 | 4:41.32 | 68253 | 89359 5 | 19:51.35 | 4:08.46 | 89360 | 108005 6 | 24:00.06 | 5:21.44 | 108006 | 132124 7 | 29:21.50 | 5:39.05 | 132125 | 157554 8 | 35:00.55 | 5:23.01 | 157555 | 181780

Характеристики диапазона извлечения и сообщения об ошибках

Выбранный диапазон

Имя файла C:\Users\Rodexx\Desktop\Раздачи NTO\Decoded Feedback ‎– Phoenix\Decoded Feedback - Phoenix.wav

Пиковый уровень 97.7 % Скорость извлечения 6.8 X Качество диапазона 100.0 % CRC теста 3FB2268F CRC копии 3FB2268F Копирование... OK

Ошибок не произошло

AccurateRip: сводка

Трек 1 : извлечено точно (доверие 4) [F0A2BEB9] (AR v2)Трек 2 : извлечено точно (доверие 3) [E8A33606] (AR v2)Трек 3 : извлечено точно (доверие 4) [6DE6B13C] (AR v2)Трек 4 : извлечено точно (доверие 4) [6F65ADBF] (AR v2)Трек 5 : извлечено точно (доверие 3) [A7F10B74] (AR v2)Трек 6 : извлечено точно (доверие 3) [4B23BB52] (AR v2)Трек 7 : извлечено точно (доверие 3) [B00A77F6] (AR v2)Трек 8 : извлечено точно (доверие 4) [2473CF6B] (AR v2)

Все треки извлечены точно

Конец отчёта

==== Контрольная сумма отчёта 1D8173B04AB8D6020371B0F2EC6CEA57FB9C03AA440AA502E91C3B3940DA3971 ====
REM GENRE EthnicREM DATE 2002REM DISCID 54097708REM COMMENT "ExactAudioCopy v1.0b3"PERFORMER "Decoded Feedback"TITLE "Phoenix"FILE "Decoded Feedback - Phoenix.flac" WAVE TRACK 01 AUDIO TITLE "Phoenix" PERFORMER "Decoded Feedback" INDEX 01 00:00:00 TRACK 02 AUDIO TITLE "Euthanansia (Shockwave Mix)" PERFORMER "Decoded Feedback" INDEX 00 05:14:25 INDEX 01 05:16:25 TRACK 03 AUDIO TITLE "Ethernal Dreams" PERFORMER "Decoded Feedback" INDEX 00 10:37:06 INDEX 01 10:39:06 TRACK 04 AUDIO TITLE "Phoenix (Sunray Mix by Angels & Agony)" PERFORMER "Decoded Feedback" INDEX 00 15:08:03 INDEX 01 15:10:03 TRACK 05 AUDIO TITLE "Phoenix (Imperative Reaction Remix)" PERFORMER "Decoded Feedback" INDEX 00 19:49:35 INDEX 01 19:51:35 TRACK 06 AUDIO TITLE "Phoenix (Noisex Remix)" PERFORMER "Decoded Feedback" INDEX 00 23:58:06 INDEX 01 24:00:06 TRACK 07 AUDIO TITLE "Phoenix (KiEw Reconstruction)" PERFORMER "Decoded Feedback" INDEX 00 29:19:50 INDEX 01 29:21:50 TRACK 08 AUDIO TITLE "Phoenix (Defcode Club Mix)" PERFORMER "Decoded Feedback" INDEX 00 34:58:55 INDEX 01 35:00:55
Written at Defcode Labs, Canada.
Mastered for Silverbirch Productions, Toronto, Canada.
Bass, Drums, Sequenced By – Marco Biagiotti, Yone Dudas
Keyboards, Arranged By – Yone Dudas
Lyrics By – Decoded Feedback (tracks: 2, 3), Jessica Webster (tracks: 1, 4 to 8)
Mastered By – Andy Krehm
Vocals, Sampler – Marco Biagiotti
Written-By – Decoded Feedback


Трекер:  [ 14-Июн-2018 15:01 ]

  

Скачать .torrent

Размер .torrent файла 12 KB


Размер: 307 MB
Хэш (hash) релиза: 8fe15f291e7f0982d50f43480d2325cd46e46d89

Еще никто не оставлял запись к записи скачать торрент . Будь первым!

!Обратная связь