डाउनलोड APK | Lucky☆Star | Theme by Design Lab

Скачать через торрент Цыганка Анна Сиротка Анна Фильм бесплатно в хорошем качестве torrent

Скачивайте на UnionPeer.org фильмы через торрент без регистрации. Новинки кино в хорошем качестве через торрент. На UnionPeer.org можно скачать через торрент фильмы 2014 и 2015 годов. Самые новые фильмы.

Скачать торрент Цыганка Анна Сиротка Анна бесплатно через .torrent фильм мультфильм сериал

Статистика раздачи
Размер:  8.99 GB   |    Зарегистрирован:  2 месяца 3 дня   |    .torrent скачан:  20 раз   |   
Раздают:  1  
   
загрузка...
 
Автор Сообщение

Galfimbul

avatar Galfimbul


Цыганка Анна / Fante-Anne / Gypsy Anne
Год выпуска: 1920
Страна: Норвегия
Жанр: драма
Продолжительность: 01:15:09
Перевод: Субтитры
Оригинальная аудиодорожка: музыкальное сопровождение - Халльдор Крог
Субтитры: Русские (schabay243387 и nocracker; AlekceуR76), английские (NFI) на норвежские интертитры
Режиссер: Расмус Брейстейн / Rasmus Breistein
В ролях: Йоханна Брюн, Ларс Твинде, Аста Нильсен, Дагмар Мирвольд, Айнар Твейто, Хенни Шёнберг, Эдвард Драблес, Кристина Ульмо, Эдьза Ванг, Олаф Сольберг
Описание:
Забрела как-то на ферму Стурлиен измученная и больная женщина, нёсшая на руках новорожденную девочку. Всё, что она просила – возможности отдохнуть и набраться сил.
Но хозяева, как это и положено истинным христианам, в этой малости отказали. На утро женщину нашли мёртвой, девочку взяла себе хозяйка фермы и назвала Анной, а умершую всем селом достойно похоронили.
Время шло, девочка выросла шалуньей и непоседой, приёмная мать её не жаловала, всю любовь отдавая родному сыну. А однажды, за очередную провинность, пообещала выгнать из дома и села. И тут Анна, несмотря на свой малый возраст поняла, что она не родная дочь, и жизнь дальнейшая сахаром явно не будет…
| | Сэмпл
Качество: BDRemux 1080p
Контейнер: MKV
Видео: AVC (x264), 1920x1080 (1.31:1), 24 fps, 12999 kbps
Аудио: DTS-HD MA 5.1, 48 kHz, 4120 kbps, 24-bit (DTS Core: 5.1, 48 kHz, 1509 kbps, 24-bit) — Score by Halldor Krogh
Формат субтитров: softsub (SRT)
General
Unique ID : 92556534150863164455534006836917622131 (0x45A1BD7507A837B334585B4FDE56D573)
Complete name : Fante-Anne.1920.1080p.BDRemux.Nor.Intertitles.mkv
Format : Matroska
Format version : Version 2
File size : 8.99 GiB
Duration : 1 h 15 min
Overall bit rate mode : Variable
Overall bit rate : 17.1 Mb/s
Movie name : Fante-Anne / Цыганка Анна (1920) – RuTracker
Encoded date : UTC 2018-06-13 17:30:28
Writing application : mkvmerge v23.0.0 ('The Bride Said No') 64-bit
Writing library : libebml v1.3.6 + libmatroska v1.4.9
Cover : Yes
Attachments : cover.jpg

Video
ID : 1
Format : AVC
Format/Info : Advanced Video Codec
Format profile : [email protected]
Format settings : CABAC / 3 Ref Frames
Format settings, CABAC : Yes
Format settings, RefFrames : 3 frames
Codec ID : V_MPEG4/ISO/AVC
Duration : 1 h 15 min
Bit rate mode : Variable
Bit rate : 13.0 Mb/s
Maximum bit rate : 38.0 Mb/s
Width : 1 920 pixels
Height : 1 080 pixels
Display aspect ratio : 16:9
Frame rate mode : Constant
Frame rate : 24.000 FPS
Color space : YUV
Chroma subsampling : 4:2:0
Bit depth : 8 bits
Scan type : Progressive
Bits/(Pixel*Frame) : 0.261
Stream size : 6.82 GiB (76%)
Writing library : x264 core 120 r2164 da19765
Encoding settings : cabac=1 / ref=4 / deblock=1:-1:-1 / analyse=0x3:0x133 / me=umh / subme=10 / psy=1 / psy_rd=1.00:0.15 / mixed_ref=1 / me_range=24 / chroma_me=1 / trellis=2 / 8x8dct=1 / cqm=0 / deadzone=21,11 / fast_pskip=1 / chroma_qp_offset=-3 / threads=36 / sliced_threads=0 / slices=4 / nr=0 / decimate=1 / interlaced=0 / bluray_compat=1 / constrained_intra=0 / bframes=3 / b_pyramid=1 / b_adapt=2 / b_bias=0 / direct=3 / weightb=1 / open_gop=1 / weightp=1 / keyint=24 / keyint_min=1 / scenecut=40 / intra_refresh=0 / rc_lookahead=24 / rc=2pass / mbtree=1 / bitrate=13000 / ratetol=1.0 / qcomp=0.60 / qpmin=0 / qpmax=69 / qpstep=4 / cplxblur=20.0 / qblur=0.5 / vbv_maxrate=38000 / vbv_bufsize=30000 / nal_hrd=vbr / ip_ratio=1.40 / aq=1:1.00
Language : Norwegian
Default : Yes
Forced : No
Color range : Limited
Color primaries : BT.709
Transfer characteristics : BT.709
Matrix coefficients : BT.709

Audio
ID : 2
Format : DTS
Format/Info : Digital Theater Systems
Format profile : MA / Core
Codec ID : A_DTS
Duration : 1 h 15 min
Bit rate mode : Variable / Constant
Bit rate : 4 120 kb/s / 1 509 kb/s
Channel(s) : 6 channels
Channel positions : Front: L C R, Side: L R, LFE
Sampling rate : 48.0 kHz
Frame rate : 93.750 FPS (512 SPF)
Bit depth : 24 bits
Compression mode : Lossless / Lossy
Stream size : 2.16 GiB (24%)
Title : Music by Halldor Krogh and The Norwegian Radio Orchestra
Language : zxx
Default : Yes
Forced : No

Text #1
ID : 3
Format : UTF-8
Codec ID : S_TEXT/UTF8
Codec ID/Info : UTF-8 Plain Text
Duration : 1 h 13 min
Bit rate : 26 b/s
Count of elements : 144
Stream size : 14.3 KiB (0%)
Title : schabay243387, nocracker
Language : Russian
Default : Yes
Forced : No

Text #2
ID : 4
Format : UTF-8
Codec ID : S_TEXT/UTF8
Codec ID/Info : UTF-8 Plain Text
Duration : 1 h 13 min
Bit rate : 26 b/s
Count of elements : 146
Stream size : 14.5 KiB (0%)
Title : AlekceуR76
Language : Russian
Default : No
Forced : No

Text #3
ID : 5
Format : UTF-8
Codec ID : S_TEXT/UTF8
Codec ID/Info : UTF-8 Plain Text
Duration : 1 h 14 min
Bit rate : 17 b/s
Count of elements : 161
Stream size : 9.41 KiB (0%)
Title : NFI
Language : English
Default : No
Forced : No


Трекер:  [ 14-Июн-2018 13:30 ]

  

Скачать .torrent

Размер .torrent файла 45 KB


Размер: 8.99 GB
Хэш (hash) релиза: 2750528aba554a1ce7b1ef6a9a307e34dfc2fdc3
Подписка на обновления:

Торренты, похожие на Цыганка Анна Сиротка Анна скачать торрент

Форум Название Автор Размер S L Добавлен
Зарубежные фильмы до 2016 ·%· Цыганка Анна / Сиротка Анна / Fante-Anne / Gypsy Anne (Расмус Брейстейн / Rasmus Breistein) [1920, Норвегия, драма, немое кино, BDRip 720p] Intertitles Eng + Sub Rus Galfimbul 45641958584.25 GB 0 0 1528972227

13:30

14-Июн-18

Еще никто не оставлял запись к записи скачать торрент Цыганка Анна Сиротка Анна . Будь первым!

!Обратная связь