Fontcreator 6.0 | Wargame European Escalation 2012 Reloaded | Virtual Dj Studio 6.4

Скачать через торрент Цыганка Анна Сиротка Анна Фильм бесплатно в хорошем качестве torrent

Скачивайте на UnionPeer.org фильмы через торрент без регистрации. Новинки кино в хорошем качестве через торрент. На UnionPeer.org можно скачать через торрент фильмы 2014 и 2015 годов. Самые новые фильмы.

Скачать торрент Цыганка Анна Сиротка Анна бесплатно через .torrent фильм мультфильм сериал

Статистика раздачи
Размер:  4.25 GB   |    Зарегистрирован:  7 дней   |    .torrent скачан:  19 раз   |   
Раздают:  1  
   
загрузка...
 
Автор Сообщение

Galfimbul

avatar Galfimbul


Цыганка Анна / Fante-Anne / Gypsy Anne
Год выпуска: 1920
Страна: Норвегия
Жанр: драма
Продолжительность: 01:15:09
Перевод: Субтитры
Оригинальная аудиодорожка: музыкальное сопровождение - Халльдор Крог
Субтитры: Русские (schabay243387 и nocracker; AlekceуR76) на английские интертитры
Режиссер: Расмус Брейстейн / Rasmus Breistein
В ролях: Йоханна Брюн, Ларс Твинде, Аста Нильсен, Дагмар Мирвольд, Айнар Твейто, Хенни Шёнберг, Эдвард Драблес, Кристина Ульмо, Эдьза Ванг, Олаф Сольберг
Описание:
Забрела как-то на ферму Стурлиен измученная и больная женщина, нёсшая на руках новорожденную девочку. Всё, что она просила – возможности отдохнуть и набраться сил.
Но хозяева, как это и положено истинным христианам, в этой малости отказали. На утро женщину нашли мёртвой, девочку взяла себе хозяйка фермы и назвала Анной, а умершую всем селом достойно похоронили.
Время шло, девочка выросла шалуньей и непоседой, приёмная мать её не жаловала, всю любовь отдавая родному сыну. А однажды, за очередную провинность, пообещала выгнать из дома и села. И тут Анна, несмотря на свой малый возраст поняла, что она не родная дочь, и жизнь дальнейшая сахаром явно не будет…
| | Сэмпл
Качество: BDRip 720p (HaB)
Контейнер: MKV
Видео: x264, 946x720 (1.31:1), 24 fps, 7456 kbps
Аудио: AC3 5.1, 48 kHz, 640 kbps — Score by Halldor Krogh
Формат субтитров: softsub (SRT)
<div class="sp-wrap">
<div class="sp-head folded">nfo</div>
<div class="sp-body">RELEASE NAME....: Fante-Anne.1920.720p.BluRay.AC3.x264-HaB
RELEASE SIZE....: 4.05 GiB
RUNTIME.........: 1h 15mn
VIDEO CODEC... .: x264, crf, [email protected]
FRAMERATE.......: 24.000 fps
VIDEO BITRATE...: 7304 Kbps
RESOLUTION......: 946x720
AUDIO...........: Score, AC3 2.0, 256 Kbps
COMMENTARY......: n/a
INTERTiTLES.....: English
CHAPTERS........: n/a
SOURCE..........: 1080p Blu-ray AVC LPCM 2.0
Nordisk Film Distribution - 2012
General
Unique ID : 33779285945296566125454982586051452920 (0x1969A7616A9A4AC412028F511E29DFF8)
Complete name : Fante-Anne.1920.720p.BluRay.AC3.x264-HaB.Eng.Intertitles.mkv
Format : Matroska
Format version : Version 2
File size : 4.25 GiB
Duration : 1 h 15 min
Overall bit rate : 8 098 kb/s
Movie name : Fante-Anne / Цыганка Анна (1920) – RuTracker
Encoded date : UTC 2018-06-13 17:34:38
Writing application : mkvmerge v23.0.0 ('The Bride Said No') 64-bit
Writing library : libebml v1.3.6 + libmatroska v1.4.9
Cover : Yes
Attachments : cover.jpg

Video
ID : 1
Format : AVC
Format/Info : Advanced Video Codec
Format profile : [email protected]
Format settings : CABAC / 12 Ref Frames
Format settings, CABAC : Yes
Format settings, RefFrames : 12 frames
Codec ID : V_MPEG4/ISO/AVC
Duration : 1 h 15 min
Bit rate : 7 456 kb/s
Width : 946 pixels
Height : 720 pixels
Display aspect ratio : 4:3
Frame rate mode : Constant
Frame rate : 24.000 FPS
Color space : YUV
Chroma subsampling : 4:2:0
Bit depth : 8 bits
Scan type : Progressive
Bits/(Pixel*Frame) : 0.456
Stream size : 3.91 GiB (92%)
Title : Fante-Anne.1920.720p.BluRay.AC3.x264-HaB
Writing library : x264 core 148 r2665 a01e339
Encoding settings : cabac=1 / ref=12 / deblock=1:-3:-3 / analyse=0x3:0x133 / me=tesa / subme=11 / psy=1 / psy_rd=1.05:0.00 / mixed_ref=1 / me_range=24 / chroma_me=1 / trellis=2 / 8x8dct=1 / cqm=0 / deadzone=21,11 / fast_pskip=0 / chroma_qp_offset=-2 / threads=18 / lookahead_threads=4 / sliced_threads=0 / nr=0 / decimate=0 / interlaced=0 / bluray_compat=0 / constrained_intra=0 / bframes=16 / b_pyramid=2 / b_adapt=2 / b_bias=0 / direct=3 / weightb=1 / open_gop=0 / weightp=2 / keyint=250 / keyint_min=24 / scenecut=40 / intra_refresh=0 / rc=crf / mbtree=0 / crf=19.2 / qcomp=0.70 / qpmin=0 / qpmax=69 / qpstep=4 / ip_ratio=1.30 / pb_ratio=1.20 / aq=3:0.75
Language : Norwegian
Default : Yes
Forced : No

Audio
ID : 2
Format : AC-3
Format/Info : Audio Coding 3
Codec ID : A_AC3
Duration : 1 h 15 min
Bit rate mode : Constant
Bit rate : 640 kb/s
Channel(s) : 6 channels
Channel positions : Front: L C R, Side: L R, LFE
Sampling rate : 48.0 kHz
Frame rate : 31.250 FPS (1536 SPF)
Bit depth : 16 bits
Compression mode : Lossy
Stream size : 344 MiB (8%)
Title : Music by Halldor Krogh and The Norwegian Radio Orchestra
Language : zxx
Service kind : Complete Main
Default : Yes
Forced : No

Text #1
ID : 3
Format : UTF-8
Codec ID : S_TEXT/UTF8
Codec ID/Info : UTF-8 Plain Text
Duration : 1 h 13 min
Bit rate : 26 b/s
Count of elements : 144
Stream size : 14.3 KiB (0%)
Title : schabay243387, nocracker
Language : Russian
Default : Yes
Forced : No

Text #2
ID : 4
Format : UTF-8
Codec ID : S_TEXT/UTF8
Codec ID/Info : UTF-8 Plain Text
Duration : 1 h 13 min
Bit rate : 26 b/s
Count of elements : 146
Stream size : 14.5 KiB (0%)
Title : AlekceуR76
Language : Russian
Default : No
Forced : No</div>
</div>

Трекер:  [ 14-Июн-2018 13:30 ]

  

Скачать .torrent

Размер .torrent файла 21 KB


Размер: 4.25 GB
Хэш (hash) релиза: 986ce444f200598c0d86f20be5a4dfac77e4dcf9
Подписка на обновления:

Торренты, похожие на Цыганка Анна Сиротка Анна скачать торрент

Форум Название Автор Размер S L Добавлен
Зарубежные фильмы до 2016 ·%· Цыганка Анна / Сиротка Анна / Fante-Anne / Gypsy Anne (Расмус Брейстейн / Rasmus Breistein) [1920, Норвегия, драма, немое кино, BDRemux 1080p] Intertitles Nor + Sub (Rus, Eng) Galfimbul 96507830598.99 GB 0 0 1528972236

13:30

14-Июн-18

Еще никто не оставлял запись к записи скачать торрент Цыганка Анна Сиротка Анна . Будь первым!

!Обратная связь