Valerie Darger | Buck Rogers (9) | Opera Mini

Скачать через торрент Дайкон Daicon Opening Animations бесплатно Аниме Все серии на русском torrent

Статистика раздачи
Размер:  399 MB   |    Зарегистрирован:  4 месяца 8 дней   |    .torrent скачан:  33 раза   |   
Раздают:  1  
   
загрузка...
 
Автор Сообщение

Galfimbul

avatar Galfimbul


Дайкон / Daicon Opening Animations

Продолжительность: 12 мин.
Год выпуска: 22.08.1981 - 20.08.1983
Страна: Япония
Тип: Movie
Жанр: приключения, музыкальный
Режиссёр: Хироюки Ямага
Студия: Gainax
Описание: Нарисованная полностью от руки, снятая кадр за кадром, и длящаяся 5 минут, короткометражка получила название Daicon 3.
Все началось в Колледже Искусств Осаки в группе друзей: Таками Акаи, Хидеаки Анно и Хироюки Ямага. Они проживали вместе, разделяя одну квартиру и общий жизненный интерес: Аниме. Этот интерес был столь силен, что друзья решили создать свое: Они приобрели 8мм камеру и начали работать над короткометражкой.
Нарисованная полностью от руки, снятая кадр за кадром, и длящаяся 5 минут, короткометражка получила название Daicon 3. Практически полностью созданный тремя друзьями, Дайкон 3 — история о молодой девушке, со стаканом воды от парочки чужих, пытающейся спасти стакан от злобных монстров. Дайкон бросался в глаза развязкой, в которой девушка устраивает ракетный обстрел, уничтожающий Годзиллу, космический линкор Ямато, USS Enterprise и Звездного Разрушителя.
В итоге, эта короткометражка достигла общественности в 1981 году в качестве части церемоний открытия 20го Научнофантастического Съезда Дайкон. Это было собрание любителей аниме, проведенное группой студентов колледжей в районе Осаки. Комитет, стоявший за этим событием, позже использовал этот опыт для открытия первого в Японии магазина, посвященного исключительно научной фантастике, General Products.
Позже та же девушка возвращается в аниме Daicon IV, но только уже в виде плейбойского кролика и бьется с гигантским роботом и Дартом Вейдером. В сравнении с оригиналом, у Daicon IV была лучшая анимация и еще больше спонтанных драк. Эта вещь также могла похвастаться привлечением Махиро Маэда (Mahiro Maeda), который позже станет со-основателем студии Gonzo и достигнет признания за свое участие в Аниматрице.
Качество: VHSRip
Рип: [Kuchikirukia]
Тип релиза: без хардсаба, без линковки
Формат видео: MKV
Видео: MPEG4 (AVC), 8 bit, 688x472, 59.940fps, 3534 Kbps
Аудио: JAP: FLAC, 48.0 kHz, 2ch, 16 bit, 884 Kbps
Субтитры: ASS, встроенные: Язык субтитров русский
#1 Перевод: Adventurer
...2138257 Отсутствие субтитров, худшее качество картинки
Сравнение скриншотов в процессе
* Чтобы смотреть с озвучкой, необходимо из папки Rus sound переписать файлы в папку, где находятся видеофайлы. Далее, следует запустить плеер и переключиться на mka-дорожку. Подробное описание здесь
* Чтобы смотреть 10-битное видео (10bit), необходимо, исходя из ваших предпочтений используемого проигрывателя, воспользоваться
этой инструкцией.
* Чтобы смотреть с субтитрами, необходимо из папки Rus subs переписать файлы в папку, где находятся видеофайлы. В большинстве плееров, одноимённые субтитры подключатся автоматически.
01. Daicon III
02. Daicon IV
Общее
Уникальный идентификатор : 141687235833047978406687249267161258300 (0x6A97F811E15DEB5065AE6FE76823593C)
Полное имя : E:\раздачи\[Kuchikirukia] Daicon Opening Animations [LD 480p Hi10P FLAC]\[Kuchikirukia] Daicon Opening Animations [LD 480p Hi10P FLAC].mkv
Формат : Matroska
Версия формата : Version 4 / Version 2
Размер файла : 399 Мбайт
Продолжительность : 12 м. 37 с.
Режим общего битрейта : Переменный
Общий поток : 4421 Кбит/сек
Дата кодирования : UTC 2018-06-14 06:50:23
Программа кодирования : mkvmerge v23.0.0 ('The Bride Said No') 64-bit
Библиотека кодирования : libebml v1.3.6 + libmatroska v1.4.9

Видео
Идентификатор : 2
Формат : AVC
Формат/Информация : Advanced Video Codec
Профиль формата : High 4:2:[email protected]
Настройки формата : CABAC / 16 Ref Frames
Параметр CABAC формата : Да
Параметр RefFrames формата : 16 кадров
Идентификатор кодека : V_MPEG4/ISO/AVC
Продолжительность : 12 м. 37 с.
Битрейт : 3534 Кбит/сек
Ширина : 688 пикселей
Высота : 472 пикселя
Соотношение сторон : 4:3
Соотношение сторон в оригинале : 3:2
Режим частоты кадров : Постоянный
Частота кадров : 59,940 (60000/1001) кадров/сек
Цветовое пространство : YUV
Субдискретизация насыщенности : 4:2:2
Битовая глубина : 8 бит
Тип развёртки : Прогрессивная
Бит/(Пиксели*Кадры) : 0.182
Размер потока : 319 Мбайт (80%)
Библиотека кодирования : x264 core 148 r2744 b97ae06
Настройки программы : cabac=1 / ref=16 / deblock=1:0:0 / analyse=0x3:0x133 / me=umh / subme=10 / psy=1 / psy_rd=1.00:0.00 / mixed_ref=1 / me_range=24 / chroma_me=1 / trellis=2 / 8x8dct=1 / cqm=0 / deadzone=21,11 / fast_pskip=1 / chroma_qp_offset=-2 / threads=10 / lookahead_threads=1 / sliced_threads=0 / nr=0 / decimate=1 / interlaced=0 / bluray_compat=0 / constrained_intra=0 / bframes=8 / b_pyramid=2 / b_adapt=2 / b_bias=0 / direct=3 / weightb=1 / open_gop=0 / weightp=2 / keyint=599 / keyint_min=59 / scenecut=40 / intra_refresh=0 / rc_lookahead=60 / rc=crf / mbtree=1 / crf=14.0 / qcomp=0.65 / qpmin=0 / qpmax=40 / qpstep=4 / ip_ratio=1.40 / aq=1:1.00
Default : Да
Forced : Нет

Аудио
Идентификатор : 3
Формат : FLAC
Формат/Информация : Free Lossless Audio Codec
Идентификатор кодека : A_FLAC
Продолжительность : 12 м. 37 с.
Вид битрейта : Переменный
Битрейт : 884 Кбит/сек
Каналы : 2 канала
Расположение каналов : Front: L R
Частота : 48,0 КГц
Частота кадров : 11,719 кадров/сек (4096 SPF)
Битовая глубина : 16 бит
Размер потока : 79,8 Мбайт (20%)
Заголовок : Remastered
Библиотека кодирования : libFLAC 1.3.1 (UTC 2014-11-25)
Язык : Japanese
Default : Да
Forced : Нет

Текст
Идентификатор : 1
Формат : ASS
Идентификатор кодека : S_TEXT/ASS
Идентификатор кодека/Информация : Advanced Sub Station Alpha
Продолжительность : 26 с. 150 мс.
Битрейт : 154 бит/сек
ElementCount : 6
Метод сжатия : Без потерь
Размер потока : 504 байт (0%)
Язык : Russian
Default : Да
Forced : Да

Меню
00:00:10.000 : :Daicon Opening
00:01:47.000 : :Daicon IV
00:05:56.000 : :Daicon III
00:11:07.000 : :Daicon Ending


Трекер:  [ 14-Июн-2018 11:01 ]

  

Скачать .torrent

Размер .torrent файла 16 KB


Размер: 399 MB
Хэш (hash) релиза: 3f851081208be4604758d5b4b3a22dc822dbc584
Подписка на обновления:

Еще никто не оставлял запись к записи скачать торрент Дайкон Daicon Opening Animations . Будь первым!

!Обратная связь